Поиск

(Avant-Garde Jazz, Free Improvisation) [CD] Ivo Perelman, Matthew Shipp, William Parker – Book Of Sound - 2014, FLAC (tracks+.cue), lossless

(Avant-Garde Jazz, Free Improvisation) [CD] Ivo Perelman, Matthew Shipp, William Parker – Book Of Sound - 2014, FLAC (tracks+.cue), lossless
Треклист:
Ivo Perelman, Matthew Shipp, William Parker – Book Of Sound
Жанр: Avant-Garde Jazz, Free Improvisation
Носитель: CD
Страна-производитель диска (релиза): UK
Год издания: 2014
Издатель (лейбл): Leo Records
Номер по каталогу: CD LR 697
Аудиокодек: FLAC (*.flac)
Тип рипа: tracks+.cue
Битрейт аудио: lossless
Продолжительность: 52:23
Источник (релизер): cd
Наличие сканов в содержимом раздачи: нет
Треклист:
1. Damnant Quod Non Intelligunt 7:23
2. Candor Dat Viribus Alas 4:52
3. De Gustibus Non Est Disputandum 8:30
4. Adsummum 9:36
5. Adde Parvum Parvo Magnus Acervus Erit 8:25
6. Veritas Vos Liberabit 13:38
 
Лог создания рипа
Exact Audio Copy V1.0 beta 3 from 29. August 2011
EAC extraction logfile from 20. April 2015, 9:24
Perelman, Shipp, Parker / Book Of Sound
Used drive : ASUS DRW-24F1ST a Adapter: 0 ID: 0
Read mode : Secure
Utilize accurate stream : Yes
Defeat audio cache : Yes
Make use of C2 pointers : No
Read offset correction : 6
Overread into Lead-In and Lead-Out : No
Fill up missing offset samples with silence : Yes
Delete leading and trailing silent blocks : No
Null samples used in CRC calculations : Yes
Used interface : Native Win32 interface for Win NT & 2000
Gap handling : Appended to previous track
Used output format : User Defined Encoder
Selected bitrate : 320 kBit/s
Quality : High
Add ID3 tag : No
Command line compressor : D:\Programs\Exact Audio Copy\Flac\flac.exe
Additional command line options : -V -8 -T "Genre=%genre%" -T "Artist=%artist%" -T "Title=%title%" -T "Album=%albumtitle%" -T "Date=%year%" -T "Tracknumber=%tracknr%" -T "Comment=%comment%" %source%
TOC of the extracted CD
Track | Start | Length | Start sector | End sector
---------------------------------------------------------
1 | 0:00.00 | 7:22.62 | 0 | 33211
2 | 7:22.62 | 4:51.52 | 33212 | 55088
3 | 12:14.39 | 8:30.17 | 55089 | 93355
4 | 20:44.56 | 9:36.27 | 93356 | 136582
5 | 30:21.08 | 8:24.58 | 136583 | 174440
6 | 38:45.66 | 13:37.53 | 174441 | 235768
Track 1
Filename D:\EAC\01 Damnant Quod Non Intelligunt.wav
Pre-gap length 0:00:02.00
Peak level 97.7 %
Extraction speed 1.9 X
Track quality 100.0 %
Test CRC 55F1FE95
Copy CRC 55F1FE95
Copy OK
Track 2
Filename D:\EAC\02 Candor Dat Viribus Alas.wav
Peak level 97.7 %
Extraction speed 2.1 X
Track quality 100.0 %
Test CRC 07A5656A
Copy CRC 07A5656A
Copy OK
Track 3
Filename D:\EAC\03 De Gustibus Non Est Disputandum.wav
Peak level 97.7 %
Extraction speed 2.5 X
Track quality 100.0 %
Test CRC D6744BBF
Copy CRC D6744BBF
Copy OK
Track 4
Filename D:\EAC\04 Adsummum.wav
Peak level 97.7 %
Extraction speed 2.7 X
Track quality 99.9 %
Test CRC 16FF6952
Copy CRC 16FF6952
Copy OK
Track 5
Filename D:\EAC\05 Adde Parvum Parvo Magnus Acervus Erit.wav
Peak level 97.9 %
Extraction speed 3.1 X
Track quality 100.0 %
Test CRC 2791A0C6
Copy CRC 2791A0C6
Copy OK
Track 6
Filename D:\EAC\06 Veritas Vos Liberabit.wav
Peak level 97.7 %
Extraction speed 3.4 X
Track quality 99.9 %
Test CRC 8EEE669A
Copy CRC 8EEE669A
Copy OK
No errors occurred
End of status report
==== Log checksum B62F43C71128D48292B8743A08D51BD7CC1C351FA18034028667E65F62DBDE2C ====
 
Содержание индексной карты (.CUE)
REM GENRE Jazz
REM DATE 2014
REM DISCID 470C4706
REM COMMENT "ExactAudioCopy v1.0b3"
PERFORMER "Perelman, Shipp, Parker"
TITLE "Book Of Sound "
FILE "01 Damnant Quod Non Intelligunt.wav" WAVE
TRACK 01 AUDIO
TITLE "Damnant Quod Non Intelligunt"
PERFORMER "Perelman, Shipp, Parker"
INDEX 01 00:00:00
FILE "02 Candor Dat Viribus Alas.wav" WAVE
TRACK 02 AUDIO
TITLE "Candor Dat Viribus Alas"
PERFORMER "Perelman, Shipp, Parker"
INDEX 01 00:00:00
FILE "03 De Gustibus Non Est Disputandum.wav" WAVE
TRACK 03 AUDIO
TITLE "De Gustibus Non Est Disputandum"
PERFORMER "Perelman, Shipp, Parker"
INDEX 01 00:00:00
FILE "04 Adsummum.wav" WAVE
TRACK 04 AUDIO
TITLE "Adsummum"
PERFORMER "Perelman, Shipp, Parker"
INDEX 01 00:00:00
FILE "05 Adde Parvum Parvo Magnus Acervus Erit.wav" WAVE
TRACK 05 AUDIO
TITLE "Adde Parvum Parvo Magnus Acervus Erit"
PERFORMER "Perelman, Shipp, Parker"
INDEX 01 00:00:00
FILE "06 Veritas Vos Liberabit.wav" WAVE
TRACK 06 AUDIO
TITLE "Veritas Vos Liberabit"
PERFORMER "Perelman, Shipp, Parker"
INDEX 01 00:00:00
Доп. информация: Recorded, mixed and mastered: Systems Two, Brooklyn NY, Oct 2013
 
Об альбоме (сборнике)
The mighty tenor saxophonist Ivo Perelman leads a team of frequent collaborators and superior craftsmen, pianist Matthew Shipp and bassist William Parker. Drawing on past endeavors in various settings, the trio's remarkably intuitive powers are inherent throughout. With movements that are the cogs in the wheel of instantaneous forays in composition, they navigate through broad vistas amid customary mimicking and contrapuntal maneuvers.
Moreover, Perelman keenly incorporates bluesy interludes, heightened by his plaintive cries, and when he mirrors human voice characteristics as a storytelling mechanism. But the group's multifarious inventions transmit a sense of elasticity, often intertwined with firmly rooted structural components via micro-motifs that synthesize into a given piece.
The final and lengthiest track "Veritas Vos Liberabit," teems with intersecting motifs, concise phrasings and playful digressions. The artists' telepathic interplay is locked in tenth gear. Perelman even tosses in some husky barrelhouse phrasings, reminiscent of tenor sax pioneer Coleman Hawkins, although the primary impetus is securely latched in the avant-garde spectrum. At times, the trio revs the engine and cycles through numerous pulses. Shipp's rolling chord patterns and complementing mosaics add a wavering flow in spots. Yet Parker's somber arco-bass lines generate notions of lament as the band switches gears, featuring the bassist's duo breakout with Perelman. They slowly raise the intensity, where the saxophonist bores through these choruses with upper-register bravado, segueing to closeout. Hence, another milestone in Perelman's already extensive discography.
 
Состав
Bass – William Parker
Painting – Ivo Perelman
Piano – Matthew Shipp
Producer – Ivo Perelman, Leo Feigin
Tenor Saxophone [Tenor Sax] – Ivo Perelman
По всем вопросам пишите личное сообщение пользователю M0p94ok.
12:56
148
Нет комментариев. Ваш будет первым!