Вы используете незарегистрированную версию компонента "Вкладки"!

Поиск

(Tzadik, Avant-Garde Jazz, Jazz-Core) [CD] Many Arms - Suspended Definition - 2014 [Spotlight Series], FLAC (tracks+.cue), lossless

(Tzadik, Avant-Garde Jazz, Jazz-Core) [CD] Many Arms - Suspended Definition - 2014 [Spotlight Series], FLAC (tracks+.cue), lossless
Треклист:
Many Arms
Suspended Definition
Жанр: Avant-Garde Jazz, Jazz-Core
Страна-производитель диска: USA
Год издания: 2014
Издатель (лейбл): Tzadik
Номер по каталогу: TZ 7809
Аудиокодек: FLAC (*.flac)
Тип рипа: tracks+.cue
Битрейт аудио: lossless
Продолжительность: 50:03
Источник (релизер): спасибо 6060842
Наличие сканов в содержимом раздачи: нет
Треклист:
1. Surface of Last Scattering
2. Pathways Through to Space
3. Greater Mass
4. Light Cones
 
Лог создания рипа
X Lossless Decoder version 20140504 (147.0)
XLD extraction logfile from 2014-06-22 23:48:17 +0400
Many Arms / Suspended Definition
Used drive : HL-DT-ST DVDRW GX30N (revision RP09)
Media type : Pressed CD
Ripper mode : XLD Secure Ripper
Disable audio cache : OK for the drive with a cache less than 1375KiB
Make use of C2 pointers : NO
Read offset correction : 6
Max retry count : 100
Gap status : Analyzed, Appended (except HTOA)
TOC of the extracted CD
Track | Start | Length | Start sector | End sector
---------------------------------------------------------
1 | 00:00:00 | 14:22:06 | 0 | 64655
2 | 14:22:06 | 11:52:52 | 64656 | 118107
3 | 26:14:58 | 09:42:64 | 118108 | 161821
4 | 35:57:47 | 14:05:54 | 161822 | 225250
AccurateRip Summary
Disc not found in AccurateRip DB.
All Tracks
Album gain : -7.59 dB
Peak : 1.000000
Statistics
Read error : 0
Jitter error (maybe fixed) : 0
Retry sector count : 0
Damaged sector count : 0
Track 01
Filename : /Users/Shared/Grabbed/Many Arms - 2014 - Suspended Definition [MP3 320]/01 - Surface of Last Scattering.mp3
/Users/Shared/Grabbed/Many Arms - 2014 - Suspended Definition [MP3 V0]/01 - Surface of Last Scattering.mp3
/Users/Shared/Grabbed/Many Arms - 2014 - Suspended Definition [FLAC]/01 - Surface of Last Scattering.flac
Pre-gap length : 00:02:00
Track gain : -7.73 dB
Peak : 1.000000
CRC32 hash (test run) : 1B772B57
CRC32 hash : 1B772B57
CRC32 hash (skip zero) : 7C81903C
AccurateRip v1 signature : 01984D32
AccurateRip v2 signature : 935C7BDD
->Track not present in AccurateRip database.
Statistics
Read error : 0
Jitter error (maybe fixed) : 0
Retry sector count : 0
Damaged sector count : 0
Track 02
Filename : /Users/Shared/Grabbed/Many Arms - 2014 - Suspended Definition [MP3 320]/02 - Pathways Through to Space.mp3
/Users/Shared/Grabbed/Many Arms - 2014 - Suspended Definition [MP3 V0]/02 - Pathways Through to Space.mp3
/Users/Shared/Grabbed/Many Arms - 2014 - Suspended Definition [FLAC]/02 - Pathways Through to Space.flac
Track gain : -7.56 dB
Peak : 0.983704
CRC32 hash (test run) : 8763E83A
CRC32 hash : 8763E83A
CRC32 hash (skip zero) : BD1E0DAA
AccurateRip v1 signature : 6E016857
AccurateRip v2 signature : 0446B39B
->Track not present in AccurateRip database.
Statistics
Read error : 0
Jitter error (maybe fixed) : 0
Retry sector count : 0
Damaged sector count : 0
Track 03
Filename : /Users/Shared/Grabbed/Many Arms - 2014 - Suspended Definition [MP3 320]/03 - Greater Mass.mp3
/Users/Shared/Grabbed/Many Arms - 2014 - Suspended Definition [MP3 V0]/03 - Greater Mass.mp3
/Users/Shared/Grabbed/Many Arms - 2014 - Suspended Definition [FLAC]/03 - Greater Mass.flac
Track gain : -7.55 dB
Peak : 1.000000
CRC32 hash (test run) : C45D9916
CRC32 hash : C45D9916
CRC32 hash (skip zero) : FF644C73
AccurateRip v1 signature : 0969B0F0
AccurateRip v2 signature : E151B7BB
->Track not present in AccurateRip database.
Statistics
Read error : 0
Jitter error (maybe fixed) : 0
Retry sector count : 0
Damaged sector count : 0
Track 04
Filename : /Users/Shared/Grabbed/Many Arms - 2014 - Suspended Definition [MP3 320]/04 - Light Cones.mp3
/Users/Shared/Grabbed/Many Arms - 2014 - Suspended Definition [MP3 V0]/04 - Light Cones.mp3
/Users/Shared/Grabbed/Many Arms - 2014 - Suspended Definition [FLAC]/04 - Light Cones.flac
Track gain : -7.58 dB
Peak : 0.999969
CRC32 hash (test run) : 1DFD68E8
CRC32 hash : 1DFD68E8
CRC32 hash (skip zero) : B4A163B8
AccurateRip v1 signature : DC7550B3
AccurateRip v2 signature : 45F0954F
->Track not present in AccurateRip database.
Statistics
Read error : 0
Jitter error (maybe fixed) : 0
Retry sector count : 0
Damaged sector count : 0
No errors occurred
End of status report
-----BEGIN XLD SIGNATURE-----
auKeYzjKy0.XIPM856vf.iQv30gDcj7cCCTpiT6mbVZ.NsLgftuieyUTfRuZy8yrL3gYYMZ98bdgWTX3QymopS_f525Q3nSm8x0HA.O
-----END XLD SIGNATURE-----
 
Содержание индексной карты (.CUE)
TITLE "Suspended Definition"
PERFORMER "Many Arms"
REM GENRE "Rock / Avant-Garde"
REM DATE "2014"
REM DISCNUMBER 1
REM TOTALDISCS 1
REM DISCID 380BBB04
REM REPLAYGAIN_ALBUM_GAIN -7.59 dB
REM REPLAYGAIN_ALBUM_PEAK 1.000000
FILE "01 - Surface of Last Scattering.flac" WAVE
TRACK 01 AUDIO
TITLE "Surface of Last Scattering"
PERFORMER "Many Arms"
FLAGS DCP
REM REPLAYGAIN_TRACK_GAIN -7.73 dB
REM REPLAYGAIN_TRACK_PEAK 1.000000
INDEX 01 00:00:00
FILE "02 - Pathways Through to Space.flac" WAVE
TRACK 02 AUDIO
TITLE "Pathways Through to Space"
PERFORMER "Many Arms"
FLAGS DCP
REM REPLAYGAIN_TRACK_GAIN -7.56 dB
REM REPLAYGAIN_TRACK_PEAK 0.983704
INDEX 01 00:00:00
FILE "03 - Greater Mass.flac" WAVE
TRACK 03 AUDIO
TITLE "Greater Mass"
PERFORMER "Many Arms"
FLAGS DCP
REM REPLAYGAIN_TRACK_GAIN -7.55 dB
REM REPLAYGAIN_TRACK_PEAK 1.000000
INDEX 01 00:00:00
FILE "04 - Light Cones.flac" WAVE
TRACK 04 AUDIO
TITLE "Light Cones"
PERFORMER "Many Arms"
FLAGS DCP
REM REPLAYGAIN_TRACK_GAIN -7.58 dB
REM REPLAYGAIN_TRACK_PEAK 0.999969
INDEX 01 00:00:00
 
Об альбоме
For the truly Ill-adelphia/NYC guitarorrists Many Arms, there may be no more apropos home than pioneering avant-gardist John Zorn's Tzadik label for the trio's firestorm of mangled, yet cutthroat precise, jazz-punk fury. After all, the famed Downtown maestro did his part in cementing the prototype for Many Arms' brainiac aesthetic via the radical grindcore ear-bleeding in Painkiller and the surf/metal/country deconstruction of Naked City. That chunk of Zorn's arc—along with Black Flag's exercise in virtuosic instro-metal torture from 1985, The Process of Weeding Out, and the unfettered might of finger-hopping overlord Mick Barr—coursed through Many Arms' 2012 self-titled Tzadik debut.
While six-string riffer Nick Millevoi, low end-monger Johnny DeBlase and powerhouse drummer Ricardo Lagomasino's formula of dishing out a clusterfuck of mind-bending notes endures here, the threesome have added to their arsenal. On Suspended Definition—their second effort for Tzadik and fourth long player overall—Many Arms have dug even deeper into math-metal wizardry, bolstering their already imposing lineup with gale-force blowing guest saxophonist Colin Fisher, thus blasting their outré sonic blitz into a fire-breathing free jazz otherworld.
Like its predecessor's opener, the steamrolling marathon of proggy licks "Beyond Territories," Suspended Definition instantly shreds out of the gate with another 15-minute rip job. However, "Surface of Last Scattering" sheds some of the jarring repetition of "Beyond Territories" and journeys improbably into more cerebral and multifarious terrain. That sound-world—the wrecked-on-speed collision of DeBlase's wad of thunderous bass riffs, Lagomasino's swinging beats and Millevoi's gnarly ax assault—sends "Surface of Last Scattering" toward the vistas of John Coltrane's 1967 monumental life-changer, Interstellar Space, and the threesome have Fisher's squealing storm to thank for ascending those heights.
Space is the place (thank you, Sun Ra) on Suspended Definition, and its alien jazz idiom is way out there and deep. That stratospheric theme is found in the creepy, minimalist, slow-burn build into utter frenzy heard on "Pathways to Space," the bathed-in-skronk horn wallop of "Greater Mass," and the dizzying time-signature-fest of 14-minute closer "Light Cones." This Many Arms-Fisher combo amounts to a spiritual and violent jazz-punk beast, an unholy union made manifest on Suspended Definition's four cosmic epics. (Brad Cohan)
 
Состав

Nick Millevoi - guitar
Johnny DeBlase - bass
Ricardo Lagomasino - drums
feat. Colin Fisher - tenor & baritone saxes
По всем вопросам пишите личное сообщение пользователю M0p94ok.
03:00
184
Нет комментариев. Ваш будет первым!