Вы используете незарегистрированную версию компонента "Вкладки"!

Поиск

(Avant-Garde Jazz) [CD] Fire! Orchestra (Mats Gustafsson, Johan Berthling, Andreas Werliin) feat. Dan Berglund, Jonas Kullhammar, Magnus Broo, Mats Aleklint, Mariam Wallentin a.o. - Enter - 2014 [Rune Grammofon], FLAC (tracks+.cue), lossless

(Avant-Garde Jazz) [CD] Fire! Orchestra (Mats Gustafsson, Johan Berthling, Andreas Werliin) feat. Dan Berglund, Jonas Kullhammar, Magnus Broo, Mats Aleklint, Mariam Wallentin a.o. - Enter - 2014 [Rune Grammofon], FLAC (tracks+.cue), lossless
Треклист:
FIRE!
ORCHESTRA
enter Жанр: Avant-Garde Jazz
Страна-производитель диска: Norway
Год издания: 2014
Издатель (лейбл): Rune Grammofon
Номер по каталогу: RCD 2158
Аудиокодек: FLAC (*.flac)
Тип рипа: tracks+.cue
Битрейт аудио: lossless
Продолжительность: 54:32
Источник (релизер): спасибо PeopleWantDucks
Наличие сканов в содержимом раздачи: нет
Треклист:
1. Enter! Part One
2. Enter! Part Two
3. Enter! Part Three
4. Enter! Part Four
 
Лог создания рипа
Exact Audio Copy V1.0 beta 3 from 29. August 2011
EAC extraction logfile from 18. June 2014, 19:15
Fire! Orchestra / Enter
Used drive : TSSTcorpCDDVDW SH-S203D Adapter: 3 ID: 0
Read mode : Secure
Utilize accurate stream : Yes
Defeat audio cache : Yes
Make use of C2 pointers : No
Read offset correction : 6
Overread into Lead-In and Lead-Out : No
Fill up missing offset samples with silence : Yes
Delete leading and trailing silent blocks : No
Null samples used in CRC calculations : Yes
Used interface : Native Win32 interface for Win NT & 2000
Gap handling : Appended to previous track
Used output format : User Defined Encoder
Selected bitrate : 1024 kBit/s
Quality : High
Add ID3 tag : No
Command line compressor : C:\Program Files (x86)\Exact Audio Copy\Flac\flac.exe
Additional command line options : -8 -V -T "ARTIST=%artist%" -T "TITLE=%title%" -T "ALBUM=%albumtitle%" -T "DATE=%year%" -T "TRACKNUMBER=%tracknr%" -T "GENRE=%genre%" -T "PERFORMER=%albuminterpret%" -T "COMPOSER=%composer%" %haslyrics%--tag-from-file=LYRICS="%lyricsfile%"%haslyrics% -T "ALBUMARTIST=%albumartist%" -T "DISCNUMBER=%cdnumber%" -T "TOTALDISCS=%totalcds%" -T "TOTALTRACKS=%numtracks%" -T "COMMENT=%comment%" %source% -o %dest%
TOC of the extracted CD
Track | Start | Length | Start sector | End sector
---------------------------------------------------------
1 | 0:00.00 | 13:43.32 | 0 | 61756
2 | 13:43.32 | 17:09.53 | 61757 | 138984
3 | 30:53.10 | 14:40.20 | 138985 | 205004
4 | 45:33.30 | 8:59.35 | 205005 | 245464
Track 1
Filename C:\Fire! Orchestra - Enter (2014) [FLAC]\01 - Enter Part One.wav
Pre-gap length 0:00:02.00
Peak level 100.0 %
Extraction speed 3.2 X
Track quality 100.0 %
Test CRC 54FDA741
Copy CRC 54FDA741
Track not present in AccurateRip database
Copy OK
Track 2
Filename C:\Fire! Orchestra - Enter (2014) [FLAC]\02 - Enter Part Two.wav
Peak level 100.0 %
Extraction speed 4.2 X
Track quality 100.0 %
Test CRC B553E83A
Copy CRC B553E83A
Track not present in AccurateRip database
Copy OK
Track 3
Filename C:\Fire! Orchestra - Enter (2014) [FLAC]\03 - Enter Part Three.wav
Peak level 100.0 %
Extraction speed 5.0 X
Track quality 100.0 %
Test CRC FE783F06
Copy CRC FE783F06
Track not present in AccurateRip database
Copy OK
Track 4
Filename C:\Fire! Orchestra - Enter (2014) [FLAC]\04 - Enter Part Four.wav
Peak level 100.0 %
Extraction speed 4.7 X
Track quality 99.9 %
Test CRC 96B61BA1
Copy CRC 96B61BA1
Track not present in AccurateRip database
Copy OK
None of the tracks are present in the AccurateRip database
No errors occurred
End of status report
---- CUETools DB Plugin V2.1.3
[CTDB TOCID: Iv0wnT0pDkjJNqwVrxTs1l3.n8g-] found, Submit result: already submitted
[81837d58] (1/1) Accurately ripped
==== Log checksum 47BE3BA66B639FC7D89D747F38A91DCD7422D094BA79ABFDA39583396B8A1538 ====
 
Содержание индексной карты (.CUE)
REM GENRE Experimental
REM DATE 2014
REM DISCID 350CC804
REM COMMENT "ExactAudioCopy v1.0b3"
PERFORMER "Fire! Orchestra"
TITLE "Enter"
FILE "01 - Enter Part One.wav" WAVE
TRACK 01 AUDIO
TITLE "Enter Part One"
PERFORMER "Fire! Orchestra"
ISRC CoEQF1458010
INDEX 01 00:00:00
FILE "02 - Enter Part Two.wav" WAVE
TRACK 02 AUDIO
TITLE "Enter Part Two"
PERFORMER "Fire! Orchestra"
ISRC CoEQF1458020
INDEX 01 00:00:00
FILE "03 - Enter Part Three.wav" WAVE
TRACK 03 AUDIO
TITLE "Enter Part Three"
PERFORMER "Fire! Orchestra"
ISRC CoEQF1458030
INDEX 01 00:00:00
FILE "04 - Enter Part Four.wav" WAVE
TRACK 04 AUDIO
TITLE "Enter Part Four"
PERFORMER "Fire! Orchestra"
ISRC CoEQF1458030
INDEX 01 00:00:00
 
Об альбоме
Fire! Orchestra are all about contradictions, contrasting madness with tunefulness and the monumental scope with the moments of minimalistic improvisation. This big band comprised of 28 Swedish musicians made a name for themselves last year with Exit!, the debut that stretched out the boundaries of free jazz, taking inspiration from a wide variety of music styles. The effect was a discordant blast of an album that defied expectations with its potent mash-up of noise and cacophony set against a distinctly melodious backdrop. Enter! is a logical continuation of this musical path, elaborating on the free jazz style with an enlarged spectrum of musical influences. The apocalyptic crescendos and trance-inducing rhythms finely blend with the free jazz elements. Yet, there's also plenty of soul intimacy and rock swagger on display this time around, which makes Enter! into an even more genre-bending offering than its predecessor.
The songwriting is dictated by movements that patiently progress in post-rock fashion. The big band's conductor Mats Gustafsson is in perfect control of every sound, lending the music guidance and discipline. Still, there's room for unhinged moments of madness that are not only reflected in the dissonant arrangement of saxophones and trumpets constantly building up and dissolving into chaos, but also in vocal performances delivered by three singers who boast vastly different techniques. The vocal palette encompasses delicate soprano one moment and guttural screeching that's utterly unsettling the next. These diverse vocals are instrumental in shaping up a distinct spiritual dimension in which the album exists.
Even though 52-minute long Enter! feels very much like one multifaceted composition, it has been awkwardly divided into two parts. The first one is way more engrossing, showcasing the big band's knack for blending numerous potentially dissimilar styles to dazzling effect. Swiftly advancing through a serene art-pop intro, a crazed theatrical mid-section and a blissful rock freak-out based on a formidable bass groove and swift tribal drumming, the piece overflows with genuine passion, and a sense of pay-off that's been absent from experimental jazz music recently. Regrettably the album loses some steam later on. The tight song craft gives way to the abstract musical forms of 'Part 2' which ranges from intriguing to downright terrifying, yet never quite reaches the emotional resonance of the ensemble's most alluring work.
Enter! rekindles its strength with the last segment, though. In its final 9 minutes the album reshapes its apocalyptic visions into something much more hopeful. This lushly orchestrated piece may capture the band in their most conventional mode, but its intensity built around poignant vocals and mounting tension is in a class by itself. The result is an anthem that's at once powerfully emotive and deeply inspiring. “Underneath the water it feels like inside the womb,” the vocalists proclaim in unison in the track's finale. It's the rebirth of human spirit.
Review Summary: Rekindling the fire!
(Greg Fisher)
 
Состав

Mats Gustafsson - saxophones
Johan Berthling - bass
Andreas Werliin - drums
&
Mariam Wallentin: vocals
Sofie Jernberg: vocals
Simon Ohlsson: vocals
Niklas Barnö: trumpet
Magnus Broo: trumpet
Emil Strandberg: trumpet
Mats Äleklint: trombone
Per Åke Holmlander: tuba
Anna Högberg: alto sax
Jonas Kullhammar: bass saxophone
Elin Larsson: tenor sax
Fredrik Ljungkvist: baritone sax, clarinet
Christer Bothén: bass clarinet, guimbri
Andreas Söderström: guitar
Reine Fiske: guitar
Sören Runolf: guitar
David Stackenäs: guitar
Sten Sandell: synth, harmonium, piano
Joachim Nordwall: electronics
Joel Grip: bass
Dan Berglund: bass
Johan Holmegard: drums
Raymond Strid: drums
Nadine Byrne: voice, organ
Nicolai Dunger: voice
Вторая запись Enter скандинавского импровизационного оркестра Fire! Orchestra — и снова гениальная!
Возможно, вы помните: Fire! Orchestra — это 28 скандинавских музыкантов, собранных вместе неуемным саксофонистом-выдумщиком Матсом Густафссоном в оркестр вольной музыки, в которой уживаются неистовые духовые, упругая ритм-секция и напористые голоса (на этот раз не только женские, но и мужские). Как и первый, не менее выдающийся альбом Fire! Orchestra, «Enter!» фантастически полиморфен: тут и авант-кабаре с полноценными песнями, и психодел с воплями и бешеным ритмом, и самоуверенный краутрок, и неожиданные смысловые паузы; и при этом альбом все равно складывается в очень цельное художественное полотно, кажется, о том, как прорваться через смуту бытия к самому себе. В недавнем интервью «Волне» Густафссон сказал, что удачная импровизация — это как хороший секс; «Enter» в этом смысле — выдающаяся оргия, обеспечивающая счастье всем ее участникам.
Фри-джаз, с которым по-настоящему интересно; импровизации, которые не кичатся своей вольностью; песни-представления, одинаково ценные и по частям, и в составе больших композиций. Fire! Orchestra — во всех отношениях большая музыка: звуковая сложность тут отражает захватывающие приключения чувств и смыслов; и если вы слушаете современный джаз примерно раз в год — это, безусловно, тот самый раз.
Fire! — джазовое трио, образованное стараниями трех больших шведских музыкантов — саксофониста Матса Густафссона (известного в первую очередь своим фриджазовым трио The Thing), басиста и гитариста Юхана Бертлинга (когда-то начинавшего в рок-группе Tape и несшего на себе лейбл Häpna) и барабанщика Андреаса Верлина (основатель психоделического фолк дуэта Wildbirds & Peacedrums).
Первый альбом трио You Liked Me Five Minutes Ago, вышедший в 2009 году на известном лейбле Rune Grammofon, показал, что музыканты стремятся играть не джаз, не психоделический рок, усиленный электронными вкраплениями, а деликатную смесь из доступной им музыкальной палитры. Последующие альбомы с приглашенными музыкантами (Джимом О'Рурком и Ореном Амбарчи) лишь укрепили позицию музыкантов в вопросе соединения несоединимого.
В 2013 году возникла идея собрать в рамках одного коллектива всей значительных экспериментальных околоджазовых музыкантов Скандинавии, так на основе трио Fire! возник большой оркестр, выпустивший на данный момент два альбома. Музыка Fire! Orchestra возрождает в памяти музыку больших фри-джазовых ансамблей Чарли Хейдена, Карлы Блей, Сан Ра и Отомо Йошихиде.
По всем вопросам пишите личное сообщение пользователю M0p94ok.
02:59
177
Нет комментариев. Ваш будет первым!