Вы используете незарегистрированную версию компонента "Вкладки"!

Поиск

(free jazz) [cd] Kaoru Abe - Mokuyobi no Yoru 1972 {PSF PSFD-66}, FLAC (tracks+.cue), lossless

(free jazz) [cd] Kaoru Abe - Mokuyobi no Yoru 1972 {PSF PSFD-66}, FLAC (tracks+.cue), lossless
Треклист:


Kaoru Abe - Mokuyobi no Yoru 1972 {PSF PSFD-66}

Жанр: free jazz
Год выпуска: 1972
Издатель (лейбл):1995, P.S.F. Records / PSFD-66
Формат: FLAC (tracks+.cue)
Битрейт аудио: lossless
Продолжительность 50`28
Источник: what.cd, jazzmag

tracks

1 1972.7.13. Alto 1 11:21
2 1972.7.13. Alto 2 17:16
3 1972.7.13. Alto 3 21:49


 
.log
Exact Audio Copy V1.0 beta 3 from 29. August 2011
EAC extraction logfile from 9. March 2014, 0:11
Kaoru Abe / Mokuyobi no Yoru
Used drive : TSSTcorpCDDVDW SN-S083F Adapter: 0 ID: 1
Read mode : Secure
Utilize accurate stream : Yes
Defeat audio cache : Yes
Make use of C2 pointers : No
Read offset correction : 6
Overread into Lead-In and Lead-Out : No
Fill up missing offset samples with silence : Yes
Delete leading and trailing silent blocks : No
Null samples used in CRC calculations : Yes
Used interface : Installed external ASPI interface
Gap handling : Appended to previous track
Used output format : User Defined Encoder
Selected bitrate : 1024 kBit/s
Quality : High
Add ID3 tag : No
Command line compressor : C:\Program Files (x86)\Exact Audio Copy\FLAC\flac.exe
Additional command line options : -8 -V -T "ARTIST=%artist%" -T "TITLE=%title%" -T "ALBUM=%albumtitle%" -T "DATE=%year%" -T "TRACKNUMBER=%tracknr%" -T "GENRE=%genre%" -T "PERFORMER=%albuminterpret%" -T "COMPOSER=%composer%" %haslyrics%--tag-from-file=LYRICS="%lyricsfile%"%haslyrics% -T "ALBUMARTIST=%albumartist%" -T "DISCNUMBER=%cdnumber%" -T "TOTALDISCS=%totalcds%" -T "TOTALTRACKS=%numtracks%" -T "COMMENT=%comment%" %source% -o %dest%
TOC of the extracted CD
Track | Start | Length | Start sector | End sector
---------------------------------------------------------
1 | 0:00.00 | 11:21.50 | 0 | 51124
2 | 11:21.50 | 17:16.55 | 51125 | 128879
3 | 28:38.30 | 21:49.15 | 128880 | 227069
Track 1
Filename C:\cd\01 - 1972.7.13. Alto 1.wav
Pre-gap length 0:00:02.00
Peak level 95.7 %
Extraction speed 1.4 X
Track quality 100.0 %
Test CRC 71EF8315
Copy CRC 71EF8315
Cannot be verified as accurate (confidence 1) [1642E9F1], AccurateRip returned [76C4DA54] (AR v2)
Copy OK
Track 2
Filename C:\cd\02 - 1972.7.13. Alto 2.wav
Pre-gap length 0:00:02.00
Peak level 95.7 %
Extraction speed 1.9 X
Track quality 100.0 %
Test CRC E980B756
Copy CRC E980B756
Cannot be verified as accurate (confidence 1) [E50E8A42], AccurateRip returned [81794CBE] (AR v2)
Copy OK
Track 3
Filename C:\cd\03 - 1972.7.13. Alto 3.wav
Pre-gap length 0:00:03.00
Peak level 95.7 %
Extraction speed 2.3 X
Track quality 100.0 %
Test CRC 895FE79C
Copy CRC 895FE79C
Cannot be verified as accurate (confidence 1) [0B873747], AccurateRip returned [9DB7828A] (AR v2)
Copy OK
No tracks could be verified as accurate
You may have a different pressing from the one(s) in the database
No errors occurred
End of status report
---- CUETools DB Plugin V2.1.3
[CTDB TOCID: AO1RwrQcvNbExaLAFZj6dusQecs-] found, Submit result: already submitted
[13d54a97] (2/2) Accurately ripped
==== Log checksum B6FFA0A8BF468E7533E3807BD5DEA6177733F502E403B6D9D91E0092BE32543E ====
 
.cue
REM GENRE Jazz
REM DATE 1972
REM DISCID 1D0BD303
REM COMMENT "ExactAudioCopy v1.0b3"
PERFORMER "Kaoru Abe"
TITLE "Mokuyobi no Yoru"
FILE "01 - 1972.7.13. Alto 1.wav" WAVE
TRACK 01 AUDIO
TITLE "1972.7.13. Alto 1"
PERFORMER "Kaoru Abe"
INDEX 01 00:00:00
TRACK 02 AUDIO
TITLE "1972.7.13. Alto 2"
PERFORMER "Kaoru Abe"
INDEX 00 11:19:50
FILE "02 - 1972.7.13. Alto 2.wav" WAVE
INDEX 01 00:00:00
TRACK 03 AUDIO
TITLE "1972.7.13. Alto 3"
PERFORMER "Kaoru Abe"
INDEX 00 17:13:55
FILE "03 - 1972.7.13. Alto 3.wav" WAVE
INDEX 01 00:00:00
 
.accurip
[CUETools log; Date: 24/06/14 18:23:32; Version: 2.1.4]
[AccurateRip ID: 00063623-001551b3-1d0bd303] found.
Track [ CRC | V2 ] Status
01 [0061726c|1642e9f1] (0+0/1) No match
02 [195943ce|e50e8a42] (0+0/1) No match
03 [8ec302ee|0b873747] (0+0/1) No match
Offsetted by 5:
01 [76c4da54] (1/1) Accurately ripped
02 [81794cbe] (1/1) Accurately ripped
03 [9db7828a] (1/1) Accurately ripped
Track Peak [ CRC32 ] [W/O NULL] [ LOG ]
-- 95.7 [7610FBA6] [100B8528]
01 95.7 [71EF8315] [5D592965] CRC32
02 95.7 [E980B756] [92C1955D] CRC32
03 95.7 [895FE79C] [A66C18A6] CRC32

http://www.japanimprov.com/indies/psf/mokuyobi.html
другие релизы
По всем вопросам пишите личное сообщение пользователю M0p94ok.
03:01
160
Нет комментариев. Ваш будет первым!