Вы используете незарегистрированную версию компонента "Вкладки"!

Поиск

(Avant-Garde Jazz / Free Improvisation) [CD] Kidd Jordan / Alvin Fielder / Peter Kowald - Trio and Duo in New Orleans [2CD] - 2013, FLAC (tracks+.cue), lossless

(Avant-Garde Jazz / Free Improvisation) [CD] Kidd Jordan / Alvin Fielder / Peter Kowald - Trio and Duo in New Orleans [2CD] - 2013, FLAC (tracks+.cue), lossless
Треклист:
Kidd Jordan / Alvin Fielder / Peter Kowald - Trio and Duo in New Orleans
Жанр: Avant-Garde Jazz / Free Improvisation
Носитель: CD
Страна-производитель диска: Lithuania
Год издания: 2013
Издатель (лейбл): NoBusiness Records
Номер по каталогу: NBCD 64-65
Аудиокодек: FLAC (*.flac)
Тип рипа: tracks+.cue
Битрейт аудио: lossless
Продолжительность: CD 1 - 01:10:42 / CD 2 - 01:06:01
Источник (релизер): nnm, Джаз Клуб, 24 июня, 2014 / спасибо mishka1981
Наличие сканов в содержимом раздачи: да
Треклист:
CD 1
1. Trio I (12:45)
2. Trio II (09:29)
3. Trio III (High Altitude) (05:11)
4. Drums solo (06:19)
5. Bass solo (06:26)
6. Trio IV (8:40)
7. Trio V (12:57)
8. Trio VI (Concluding) (08:50)
All titles composed by Edward "Kidd" Jordan, Alvin Fielder and Peter Kowald
CD 2
1. Liftoff (09:02)
2. Duo Flight (19:45)
3. E. Fashole-Luke (17:10)
4. Tempest NOLA, 2005 (09:22)
5. Nameless Sound Duo (10:39)
3rd track composed by Edward "Kidd" Jordan, all others composed by Edward "Kidd" Jordan and Alvin Fielder
Доп. информация:
Musicians:
CD 1
Edward "Kidd" Jordan - tenor saxophone
Alvin Fielder - drums, percussion
Peter Kowald - bass
Recorded on 28th April, 2002 at Zeitgeist Multi-Disciplinary Arts Center, New Orleans, Louisiana / Coordinator - Eduardo Young / Engineer - John Crutti Jr.
CD 2
Edward "Kidd" Jordan - tenor saxophone
Alvin Fielder - drums, percussion
1-4 tracks recorded in May, 2005 at the Shed Recording Studio, New Orleans, Louisiana by Mark Chatters and Elton Heron
5th track recorded on 19th January, 2012 at Eldorado Ballroom, Houston, Texas / Coordinator - Dave Dove / Engineer - Ryan Edwards
© 2013, NoBusiness Records
Kidd Jordan / Alvin Fielder / Peter Kowald - Trio and Duo in New Orleans nobusinessrecords.com
Kidd Jordan / Alvin Fielder / Peter Kowald - Trio and Duo in New Orleans allaboutjazz.com
Edward "Kidd" Jordan from Wikipedia, the free encyclopedia
Alvin Fielder from Wikipedia, the free encyclopedia
Peter Kowald from Wikipedia, the free encyclopedia
 
... back ...
 
... photo ...

 
... review ...
“There are few left playing to whom the term ‘master’ can be applied without reservation,” proclaims Marc Medwin at the outset of his booklet note for the 2-CDTrio And Duo In New Orleans. By “master,” Medwin is not referencing craft, style or technique like others who bandy the dime word. If anything, there’s a surplus of such craftpersons in jazz, measurable through the dozens of CDs issued each month that are tightly joined, well sanded and inert. Instead, Medwin means elders, venerated teachers of life as well as music; but therein is the assumption of an insufficient number of middle-aged artists surviving to the ripe age of tenor saxophonist Kidd Jordan and drummer Alvin Fielder – the jury will be out on that count for some years. Still, “masters” is the right instinctual response to Jordan and Fielder’s duos and their trios with gone-way-too-soon bassist Peter Kowald. Long before it is is heard as the development of motives, the confluence of traditions, or any number of constructs that account for the intangibles inherent in improvisation, their music is a sheer, enlivening, superlatives-prompting force.
The nuts and bolts: The trio concert occurred in 2002; except for the concluding track, which is taken from a 2012 Houston gig, the duets are from a studio session that took place a few months before Katrina. The concert sound is solid; the small details of Kowald’s agile solo being whisked by Fielder’s brushes are as vividly captured as the trio’s most robust passages. The studio session pays similar attention to detail; there are moments when Jordan seems to time his breathier phrases with the decay of Fielder’s drums, and Fielder is just a nano-second in following Jordan’s frequent, unforeseen change of attack, register and tone. The consistency in Jordan and Fielder’s resourcefulness and hand-in-glove rapport is particularly remarkable, given that the collection spans almost a decade. Their welcoming of Kowald is palpable – a joy to behold. Having seen Jordan and Fielder at after-fest sessions at Constellation in Chicago over Labor Day 2013, it is obvious that they love to play; constantly shifting and mulling each note from each musician, their total engagement and focus was inspiring. That’s what you hear on Trio and Duo in New Orleans.
Bill Shoemaker ~ nobusinessrecords.com
 
Лог создания рипа
 
CD 1
Exact Audio Copy V1.0 beta 1 from 15. November 2010
EAC extraction logfile from 24. June 2014, 12:59
Kidd Jordan / Trio and Duo in New Orleans disc 1
Used drive : Optiarc DVD RW AD-7710H Adapter: 1 ID: 0
Read mode : Secure
Utilize accurate stream : Yes
Defeat audio cache : Yes
Make use of C2 pointers : No
Read offset correction : 48
Overread into Lead-In and Lead-Out : No
Fill up missing offset samples with silence : Yes
Delete leading and trailing silent blocks : No
Null samples used in CRC calculations : Yes
Used interface : Native Win32 interface for Win NT & 2000
Gap handling : Appended to previous track
Used output format : User Defined Encoder
Selected bitrate : 896 kBit/s
Quality : High
Add ID3 tag : No
Command line compressor : C:\Program Files\Exact Audio Copy\FLAC\FLAC.EXE
Additional command line options : -8 -V -T "ARTIST=%a" -T "TITLE=%t" -T "ALBUM=%g" -T "DATE=%y" -T "TRACKNUMBER=%n" -T "GENRE=%m" -T "COMMENT=%e" %j--picture="%i"%j %s -o %d
TOC of the extracted CD
Track | Start | Length | Start sector | End sector
---------------------------------------------------------
1 | 0:00.00 | 12:46.15 | 0 | 57464
2 | 12:46.15 | 9:29.01 | 57465 | 100140
3 | 22:15.16 | 5:11.24 | 100141 | 123489
4 | 27:26.40 | 6:19.59 | 123490 | 151973
5 | 33:46.24 | 6:26.70 | 151974 | 180993
6 | 40:13.19 | 8:40.20 | 180994 | 220013
7 | 48:53.39 | 12:57.68 | 220014 | 278356
8 | 61:51.32 | 8:51.08 | 278357 | 318189
Track 1
Filename C:\MY RIPS\01 - Trio I.wav
Pre-gap length 0:00:02.00
Peak level 100.0 %
Extraction speed 3.5 X
Track quality 100.0 %
Test CRC ED79E9D4
Copy CRC ED79E9D4
Track not present in AccurateRip database
Copy OK
Track 2
Filename C:\MY RIPS\02 - Trio II.wav
Peak level 100.0 %
Extraction speed 4.2 X
Track quality 100.0 %
Test CRC 0F89253D
Copy CRC 0F89253D
Track not present in AccurateRip database
Copy OK
Track 3
Filename C:\MY RIPS\03 - Trio III (High Altitude).wav
Peak level 100.0 %
Extraction speed 4.4 X
Track quality 100.0 %
Test CRC BAD7CA00
Copy CRC BAD7CA00
Track not present in AccurateRip database
Copy OK
Track 4
Filename C:\MY RIPS\04 - Drum Solo.wav
Peak level 100.0 %
Extraction speed 4.7 X
Track quality 100.0 %
Test CRC 08C98557
Copy CRC 08C98557
Track not present in AccurateRip database
Copy OK
Track 5
Filename C:\MY RIPS\05 - Bass Solo.wav
Peak level 34.0 %
Extraction speed 5.1 X
Track quality 100.0 %
Test CRC E92226F1
Copy CRC E92226F1
Track not present in AccurateRip database
Copy OK
Track 6
Filename C:\MY RIPS\06 - Trio IV.wav
Peak level 100.0 %
Extraction speed 5.5 X
Track quality 100.0 %
Test CRC 653C8971
Copy CRC 653C8971
Track not present in AccurateRip database
Copy OK
Track 7
Filename C:\MY RIPS\07 - Trio V.wav
Peak level 100.0 %
Extraction speed 6.1 X
Track quality 100.0 %
Test CRC 92FD2238
Copy CRC 92FD2238
Track not present in AccurateRip database
Copy OK
Track 8
Filename C:\MY RIPS\08 - Trio VI (Concluding).wav
Peak level 100.0 %
Extraction speed 6.4 X
Track quality 100.0 %
Test CRC 572F2A1C
Copy CRC 572F2A1C
Track not present in AccurateRip database
Copy OK
None of the tracks are present in the AccurateRip database
No errors occurred
End of status report
==== Log checksum 30323674B2163702932996B2C03BF2232E6BC9366671739ECABC5E973416ACD8 ====
 
CD 2
Exact Audio Copy V1.0 beta 1 from 15. November 2010
EAC extraction logfile from 24. June 2014, 14:02
Kidd Jordan / Trio and Duo in New Orleans disc 2
Used drive : Optiarc DVD RW AD-7710H Adapter: 1 ID: 0
Read mode : Secure
Utilize accurate stream : Yes
Defeat audio cache : Yes
Make use of C2 pointers : No
Read offset correction : 48
Overread into Lead-In and Lead-Out : No
Fill up missing offset samples with silence : Yes
Delete leading and trailing silent blocks : No
Null samples used in CRC calculations : Yes
Used interface : Native Win32 interface for Win NT & 2000
Gap handling : Appended to previous track
Used output format : User Defined Encoder
Selected bitrate : 896 kBit/s
Quality : High
Add ID3 tag : No
Command line compressor : C:\Program Files\Exact Audio Copy\FLAC\FLAC.EXE
Additional command line options : -8 -V -T "ARTIST=%a" -T "TITLE=%t" -T "ALBUM=%g" -T "DATE=%y" -T "TRACKNUMBER=%n" -T "GENRE=%m" -T "COMMENT=%e" %j--picture="%i"%j %s -o %d
TOC of the extracted CD
Track | Start | Length | Start sector | End sector
---------------------------------------------------------
1 | 0:00.00 | 9:06.18 | 0 | 40967
2 | 9:06.18 | 19:48.34 | 40968 | 130101
3 | 28:54.52 | 17:13.15 | 130102 | 207591
4 | 46:07.67 | 9:25.10 | 207592 | 249976
5 | 55:33.02 | 10:40.64 | 249977 | 298040
Track 1
Filename C:\MY RIPS\01 - Liftoff.wav
Pre-gap length 0:00:02.00
Peak level 89.1 %
Extraction speed 3.0 X
Track quality 99.9 %
Test CRC 2F6F2173
Copy CRC 2F6F2173
Track not present in AccurateRip database
Copy OK
Track 2
Filename C:\MY RIPS\02 - Duo Flight.wav
Pre-gap length 0:00:03.00
Peak level 89.1 %
Extraction speed 4.2 X
Track quality 99.9 %
Test CRC 7B9215EC
Copy CRC 7B9215EC
Track not present in AccurateRip database
Copy OK
Track 3
Filename C:\MY RIPS\03 - E. Fashoe-Luke.wav
Pre-gap length 0:00:03.00
Peak level 100.0 %
Extraction speed 5.4 X
Track quality 100.0 %
Test CRC A4392A13
Copy CRC A4392A13
Track not present in AccurateRip database
Copy OK
Track 4
Filename C:\MY RIPS\04 - Tempest NOLA.wav
Pre-gap length 0:00:03.00
Peak level 89.1 %
Extraction speed 5.8 X
Track quality 100.0 %
Test CRC D8A23650
Copy CRC D8A23650
Track not present in AccurateRip database
Copy OK
Track 5
Filename C:\MY RIPS\05 - Nameless Sound Duo.wav
Pre-gap length 0:00:03.00
Peak level 79.4 %
Extraction speed 6.3 X
Track quality 100.0 %
Test CRC B27F9184
Copy CRC B27F9184
Track not present in AccurateRip database
Copy OK
None of the tracks are present in the AccurateRip database
No errors occurred
End of status report
==== Log checksum D5013DC09D5E42EAE4E511C8A2A8E5FBD5F64D8AA925E12E89E98AA9AF1613A7 ====
 
Содержание индексной карты (.CUE)
 
CD 1
REM GENRE Jazz
REM DATE 2002
REM DISCID 71109208
REM COMMENT "ExactAudioCopy v1.0b1"
PERFORMER "Kidd Jordan"
TITLE "Trio and Duo in New Orleans disc 1"
FILE "01 - Trio I.wav" WAVE
TRACK 01 AUDIO
TITLE "Trio I"
PERFORMER "Kidd Jordan"
INDEX 01 00:00:00
FILE "02 - Trio II.wav" WAVE
TRACK 02 AUDIO
TITLE "Trio II"
PERFORMER "Kidd Jordan"
INDEX 01 00:00:00
FILE "03 - Trio III (High Altitude).wav" WAVE
TRACK 03 AUDIO
TITLE "Trio III (High Altitude)"
PERFORMER "Kidd Jordan"
INDEX 01 00:00:00
FILE "04 - Drum Solo.wav" WAVE
TRACK 04 AUDIO
TITLE "Drum Solo"
PERFORMER "Kidd Jordan"
INDEX 01 00:00:00
FILE "05 - Bass Solo.wav" WAVE
TRACK 05 AUDIO
TITLE "Bass Solo"
PERFORMER "Kidd Jordan"
INDEX 01 00:00:00
FILE "06 - Trio IV.wav" WAVE
TRACK 06 AUDIO
TITLE "Trio IV"
PERFORMER "Kidd Jordan"
INDEX 01 00:00:00
FILE "07 - Trio V.wav" WAVE
TRACK 07 AUDIO
TITLE "Trio V"
PERFORMER "Kidd Jordan"
INDEX 01 00:00:00
FILE "08 - Trio VI (Concluding).wav" WAVE
TRACK 08 AUDIO
TITLE "Trio VI (Concluding)"
PERFORMER "Kidd Jordan"
INDEX 01 00:00:00
 
CD 2
REM GENRE Jazz
REM DATE 2005
REM DISCID 4A0F8505
REM COMMENT "ExactAudioCopy v1.0b1"
PERFORMER "Kidd Jordan"
TITLE "Trio and Duo in New Orleans disc 2"
FILE "01 - Liftoff.wav" WAVE
TRACK 01 AUDIO
TITLE "Liftoff"
PERFORMER "Kidd Jordan"
INDEX 01 00:00:00
TRACK 02 AUDIO
TITLE "Duo Flight"
PERFORMER "Kidd Jordan"
INDEX 00 09:03:18
FILE "02 - Duo Flight.wav" WAVE
INDEX 01 00:00:00
TRACK 03 AUDIO
TITLE "E. Fashoe-Luke"
PERFORMER "Kidd Jordan"
INDEX 00 19:45:34
FILE "03 - E. Fashoe-Luke.wav" WAVE
INDEX 01 00:00:00
TRACK 04 AUDIO
TITLE "Tempest NOLA"
PERFORMER "Kidd Jordan"
INDEX 00 17:10:15
FILE "04 - Tempest NOLA.wav" WAVE
INDEX 01 00:00:00
TRACK 05 AUDIO
TITLE "Nameless Sound Duo"
PERFORMER "Kidd Jordan"
INDEX 00 09:22:10
FILE "05 - Nameless Sound Duo.wav" WAVE
INDEX 01 00:00:00
 
auCDtect Task Manager
 
CD 1
-----------------------
DON'T MODIFY THIS FILE
-----------------------
PERFORMER: auCDtect Task Manager, ver. 1.5.1RC6 build 1.5.1.7
Copyright (c) 2008-2010 y-soft. All rights reserved
http://y-soft.org
ANALYZER: auCDtect: CD records authenticity detector, version 0.8.2
Copyright (c) 2004 Oleg Berngardt. All rights reserved.
Copyright (c) 2004 Alexander Djourik. All rights reserved.
FILE: 08 - Trio VI (Concluding).flac
Size: 63471344 Hash: C6AA00389F72DCBE2D7F946D3658A23A Accuracy: -m0
Conclusion: CDDA 100%
Signature: 5A35E698E4C5A5D6A0785504B1E518D157ACFBF6
FILE: 07 - Trio V.flac
Size: 81878253 Hash: 6846D293FCEC677E79B7F1A3A1372054 Accuracy: -m0
Conclusion: CDDA 100%
Signature: 2D1C66B047D945B7A6635E49753F00548FD80F84
FILE: 06 - Trio IV.flac
Size: 59178953 Hash: 8BE0583730D8BDBF2F8055CA0D655FAA Accuracy: -m0
Conclusion: CDDA 100%
Signature: 7DF0CA507A7E766F625941C47BB5FEB2DEAEC628
FILE: 05 - Bass Solo.flac
Size: 24935273 Hash: 924CC2558F24DDC095304AA78D795CAA Accuracy: -m0
Conclusion: CDDA 99%
Signature: C353BB9B8E5D4D38189FA2E6F80EC2F0F94BA85D
FILE: 04 - Drum Solo.flac
Size: 38887734 Hash: 6816A1414E2803047BB577D9359881CA Accuracy: -m0
Conclusion: CDDA 100%
Signature: 5CDE46DCF24442128AEAB672BE0190A281F6E36D
FILE: 03 - Trio III (High Altitude).flac
Size: 38382408 Hash: 7F5479A06C8C63469C44D2ED43280D00 Accuracy: -m0
Conclusion: CDDA 100%
Signature: E3619B011E047801CF4982BE413FC71C10C97A6E
FILE: 02 - Trio II.flac
Size: 55799994 Hash: 919326190D4CE2242D53A26327D71AFB Accuracy: -m0
Conclusion: CDDA 100%
Signature: 3B104E6DE5292DA9F93ECEB9361B74377AE9E0D9
FILE: 01 - Trio I.flac
Size: 83609787 Hash: CDE71668D60598AD3ACE275011A46FE0 Accuracy: -m0
Conclusion: CDDA 100%
Signature: 665DD2C9E2C5703C8DAADB42A662A4A2138EAA35
 
CD 2
-----------------------
DON'T MODIFY THIS FILE
-----------------------
PERFORMER: auCDtect Task Manager, ver. 1.5.1RC6 build 1.5.1.7
Copyright (c) 2008-2010 y-soft. All rights reserved
http://y-soft.org
ANALYZER: auCDtect: CD records authenticity detector, version 0.8.2
Copyright (c) 2004 Oleg Berngardt. All rights reserved.
Copyright (c) 2004 Alexander Djourik. All rights reserved.
FILE: 05 - Nameless Sound Duo.flac
Size: 69220244 Hash: 083FF3F72604FDD73B0DF40D13D00F2E Accuracy: -m0
Conclusion: MPEG 95%
Signature: 49397B6256952300CB10A71AC378EBBF3A887333
FILE: 04 - Tempest NOLA.flac
Size: 74437701 Hash: 02610DDDCA4BCB018FDD5BEEFDF496C9 Accuracy: -m0
Conclusion: CDDA 99%
Signature: 443C42818003A5960A247C2CAC762C9CE2185A55
FILE: 03 - E. Fashoe-Luke.flac
Size: 129242037 Hash: 44B8A6D8434F62552DE467E500E5C9DD Accuracy: -m0
Conclusion: CDDA 100%
Signature: 7FB99AAEA6AA16FB569CD5E3B5DA7102FCBF6134
FILE: 02 - Duo Flight.flac
Size: 136518339 Hash: A5832F5D01267DF20331FBC2015633C8 Accuracy: -m0
Conclusion: CDDA 100%
Signature: EF1392B68CA09B9AE76474D9DCC0D7459CDD2D27
FILE: 01 - Liftoff.flac
Size: 66111996 Hash: F37C23577E99AB14B33EC68954D77CD7 Accuracy: -m0
Conclusion: CDDA 100%
Signature: 665AD1FA12FCA9BF8499CCB2560502D10FA2373E
По всем вопросам пишите личное сообщение пользователю M0p94ok.
03:01
194
Нет комментариев. Ваш будет первым!