Вы используете незарегистрированную версию компонента "Вкладки"!

Поиск

(Avant-Garde, Structured Improvisation, Unit Records) [CD] Martin Schlumpf's Bermuda Viereck (Urs Bloechlinger, Matthias Kielholz, Jan Schlegel, Dieter Ulrich) - Martin Schlumpf's Bermuda Viereck - 1991, FLAC (tracks+.cue), lossless

(Avant-Garde, Structured Improvisation, Unit Records) [CD] Martin Schlumpf's Bermuda Viereck (Urs Bloechlinger, Matthias Kielholz, Jan Schlegel, Dieter Ulrich) - Martin Schlumpf's Bermuda Viereck - 1991, FLAC (tracks+.cue), lossless
Треклист:
Martin Schlumpf’s Bermuda Viereck / Martin Schlumpf’s Bermuda Viereck
Жанр: Avant-Garde, Structured Improvisation, Unit Records
Носитель: CD
Страна-производитель диска: Switzerland
Год издания: 1991
Издатель (лейбл): Unit Records
Номер по каталогу: UTR 4038 CD
Аудиокодек: FLAC (*.flac)
Тип рипа: tracks+.cue
Битрейт аудио: lossless
Продолжительность: 47:47
Источник (релизер): я
Наличие сканов в содержимом раздачи: да
Треклист:
1. Clair de prune 6:07
2. Quick Zappa inglese 8:14
3. Round About 6:37
4. The Harder the Better 11:31
5. S’hätt nöd sölle si 7:49
6. Simple Melody 7:29
All compositions by Martin Schlumpf.
Recorded at « Obere Mühle » Dübendorf (Switzerland) on October 15 &16, 1990.
Urs Blöchlinger – Alto & Sopranino Saxophones, Flute
Matthias Kielholz – Guitar
Jan Schlegel – Electric Bass
Martin Schlumpf – Bass Clarinet, Soprano Saxophone
Dieter Ulrich – Drums
 
Лог создания рипа
Exact Audio Copy V1.0 beta 3 from 29. August 2011
EAC extraction logfile from 24. January 2014, 13:23
Martin Schlumpf's Bermuda Viereck / Martin Schlumpf's Bermuda Viereck
Used drive : SlimtypeeNAU508 5 Adapter: 1 ID: 0
Read mode : Secure
Utilize accurate stream : Yes
Defeat audio cache : Yes
Make use of C2 pointers : No
Read offset correction : 6
Overread into Lead-In and Lead-Out : No
Fill up missing offset samples with silence : Yes
Delete leading and trailing silent blocks : No
Null samples used in CRC calculations : Yes
Used interface : Native Win32 interface for Win NT & 2000
Gap handling : Appended to previous track
Used output format : User Defined Encoder
Selected bitrate : 768 kBit/s
Quality : High
Add ID3 tag : No
Command line compressor : C:\Program Files (x86)\Exact Audio Copy\Flac\flac.exe
Additional command line options : -8 -V -T "ARTIST=%artist%" -T "TITLE=%title%" -T "ALBUM=%albumtitle%" -T "DATE=%year%" -T "TRACKNUMBER=%tracknr%" -T "GENRE=%genre%" -T "PERFORMER=%albuminterpret%" -T "COMPOSER=%composer%" %haslyrics%--tag-from-file=LYRICS="%lyricsfile%"%haslyrics% -T "ALBUMARTIST=%albumartist%" -T "DISCNUMBER=%cdnumber%" -T "TOTALDISCS=%totalcds%" -T "TOTALTRACKS=%numtracks%" -T "COMMENT=%comment%" %source% -o %dest%
TOC of the extracted CD
Track | Start | Length | Start sector | End sector
---------------------------------------------------------
1 | 0:00.00 | 6:06.62 | 0 | 27511
2 | 6:06.62 | 8:14.00 | 27512 | 64561
3 | 14:20.62 | 6:37.00 | 64562 | 94336
4 | 20:57.62 | 11:30.38 | 94337 | 146124
5 | 32:28.25 | 7:49.37 | 146125 | 181336
6 | 40:17.62 | 7:29.13 | 181337 | 215024
Track 1
Filename C:\EAC rips\01 - Claire de prune.wav
Pre-gap length 0:00:02.00
Peak level 99.1 %
Extraction speed 2.0 X
Track quality 99.9 %
Test CRC 6EF5FB03
Copy CRC 6EF5FB03
Track not present in AccurateRip database
Copy OK
Track 2
Filename C:\EAC rips\02 - Quick Zappa inglese.wav
Pre-gap length 0:00:06.62
Peak level 72.1 %
Extraction speed 2.5 X
Track quality 99.9 %
Test CRC CAA98C39
Copy CRC CAA98C39
Track not present in AccurateRip database
Copy OK
Track 3
Filename C:\EAC rips\03 - Round About.wav
Pre-gap length 0:00:04.62
Peak level 84.5 %
Extraction speed 3.1 X
Track quality 100.0 %
Test CRC 466437FB
Copy CRC 466437FB
Track not present in AccurateRip database
Copy OK
Track 4
Filename C:\EAC rips\04 - The Harder the Better.wav
Pre-gap length 0:00:05.62
Peak level 78.5 %
Extraction speed 3.6 X
Track quality 100.0 %
Test CRC 22292CF4
Copy CRC 22292CF4
Track not present in AccurateRip database
Copy OK
Track 5
Filename C:\EAC rips\05 - S'hätt nöd sölle si.wav
Pre-gap length 0:00:03.25
Peak level 82.4 %
Extraction speed 3.9 X
Track quality 100.0 %
Test CRC 90F33262
Copy CRC 90F33262
Track not present in AccurateRip database
Copy OK
Track 6
Filename C:\EAC rips\06 - Simple Melody.wav
Pre-gap length 0:00:04.62
Peak level 61.7 %
Extraction speed 3.6 X
Track quality 99.9 %
Test CRC E65A756F
Copy CRC E65A756F
Track not present in AccurateRip database
Copy OK
None of the tracks are present in the AccurateRip database
No errors occurred
End of status report
---- CUETools DB Plugin V2.1.4
[CTDB TOCID: NwGB2a.M7rgmsaPI0Im1kQIok70-] disk not present in database
Submit result: NwGB2a.M7rgmsaPI0Im1kQIok70- has been uploaded
==== Log checksum DF57FCAFB432DC4FDB802E44DB8C43E3046983BE0E4496237984FA79364C228E ====
 
Содержание индексной карты (.CUE)
REM GENRE Jazz
REM DATE 1991
REM DISCID 530B3306
REM COMMENT "ExactAudioCopy v1.0b3"
PERFORMER "Martin Schlumpf's Bermuda Viereck"
TITLE "Martin Schlumpf's Bermuda Viereck"
FILE "01 - Clair de prune.wav" WAVE
TRACK 01 AUDIO
TITLE "Clair de prune"
PERFORMER "Martin Schlumpf's Bermuda Viereck"
INDEX 01 00:00:00
TRACK 02 AUDIO
TITLE "Quick Zappa inglese"
PERFORMER "Martin Schlumpf's Bermuda Viereck"
INDEX 00 06:00:00
FILE "02 - Quick Zappa inglese.wav" WAVE
INDEX 01 00:00:00
TRACK 03 AUDIO
TITLE "Round About"
PERFORMER "Martin Schlumpf's Bermuda Viereck"
INDEX 00 08:09:13
FILE "03 - Round About.wav" WAVE
INDEX 01 00:00:00
TRACK 04 AUDIO
TITLE "The Harder the Better"
PERFORMER "Martin Schlumpf's Bermuda Viereck"
INDEX 00 06:31:13
FILE "04 - The Harder the Better.wav" WAVE
INDEX 01 00:00:00
TRACK 05 AUDIO
TITLE "S'hätt nöd sölle si"
PERFORMER "Martin Schlumpf's Bermuda Viereck"
INDEX 00 11:27:13
FILE "05 - S'hätt nöd sölle si.wav" WAVE
INDEX 01 00:00:00
TRACK 06 AUDIO
TITLE "Simple Melody"
PERFORMER "Martin Schlumpf's Bermuda Viereck"
INDEX 00 07:44:50
FILE "06 - Simple Melody.wav" WAVE
INDEX 01 00:00:00
По всем вопросам пишите личное сообщение пользователю M0p94ok.
03:02
170
Нет комментариев. Ваш будет первым!