Вы используете незарегистрированную версию компонента "Вкладки"!

Поиск

(Tzadik, Avant-Garde, Experimental Easy Listening) John Zorn - O'o - 2009, FLAC (tracks+.cue), lossless

(Tzadik, Avant-Garde, Experimental Easy Listening) John Zorn - O'o - 2009, FLAC (tracks+.cue), lossless
Треклист:
John Zorn / O'o
Жанр: Avant-Garde, Experimental Easy Listening
Страна-производитель диска (релиза): США
Год издания: 2009
Издатель (лейбл): Tzadik
Страна исполнителя (группы): США
Аудиокодек: FLAC (*.flac)
Тип рипа: tracks+.cue
Битрейт аудио: lossless
Источник (релизер): Вата
Наличие сканов в содержимом раздачи: нет
Треклист:
1. Miller's Crake
2. Akialoa
3. Po'o'uli
4. Little Bittern
5. Mysterious Starling
6. Laughing Owl
7. Archaeopteryx
8. Solitaire
9. Piopio
10. The Zapata Rail
11. Kakawahie
12. Magdalena
 
Лог создания рипа
Exact Audio Copy V0.99 prebeta 3 from 28. July 2007
EAC extraction logfile from 18. September 2009, 19:37
John Zorn / O'o
Used drive : Optiarc BD ROM BC-5500S Adapter: 0 ID: 1
Read mode : Secure
Utilize accurate stream : Yes
Defeat audio cache : Yes
Make use of C2 pointers : No
Read offset correction : 48
Overread into Lead-In and Lead-Out : No
Fill up missing offset samples with silence : Yes
Delete leading and trailing silent blocks : No
Null samples used in CRC calculations : Yes
Used interface : Installed external ASPI interface
Gap handling : Appended to previous track
Used output format : User Defined Encoder
Selected bitrate : 128 kBit/s
Quality : High
Add ID3 tag : No
Command line compressor : C:\Program Files (x86)\FLAC\flac.exe
Additional command line options : -V -8 -T "artist=%a" -T "title=%t" -T "album=%g" -T "date=%y" -T "tracknumber=%n" -T "genre=%m" %s
TOC of the extracted CD
Track | Start | Length | Start sector | End sector
---------------------------------------------------------
1 | 0:00.00 | 4:18.23 | 0 | 19372
2 | 4:18.23 | 4:46.44 | 19373 | 40866
3 | 9:04.67 | 5:41.21 | 40867 | 66462
4 | 14:46.13 | 6:29.51 | 66463 | 95688
5 | 21:15.64 | 4:31.72 | 95689 | 116085
6 | 25:47.61 | 4:44.36 | 116086 | 137421
7 | 30:32.22 | 5:06.30 | 137422 | 160401
8 | 35:38.52 | 2:10.55 | 160402 | 170206
9 | 37:49.32 | 5:11.28 | 170207 | 193559
10 | 43:00.60 | 2:52.57 | 193560 | 206516
11 | 45:53.42 | 4:14.28 | 206517 | 225594
12 | 50:07.70 | 5:07.13 | 225595 | 248632
Track 1
Filename C:\EACrips\01 - Miller's Crake.wav
Pre-gap length 0:00:02.00
Peak level 96.6 %
Track quality 100.0 %
Test CRC CA381B71
Copy CRC CA381B71
Track not present in AccurateRip database
Copy OK
Track 2
Filename C:\EACrips\02 - Akiola.wav
Peak level 96.6 %
Track quality 100.0 %
Test CRC 305FF44D
Copy CRC 305FF44D
Track not present in AccurateRip database
Copy OK
Track 3
Filename C:\EACrips\03 - Po'o'uli.wav
Peak level 95.2 %
Track quality 100.0 %
Test CRC 177A4A92
Copy CRC 177A4A92
Track not present in AccurateRip database
Copy OK
Track 4
Filename C:\EACrips\04 - Little Bittern.wav
Peak level 96.6 %
Track quality 100.0 %
Test CRC AA203AD1
Copy CRC AA203AD1
Track not present in AccurateRip database
Copy OK
Track 5
Filename C:\EACrips\05 - Mysterious Starling.wav
Peak level 92.6 %
Track quality 99.9 %
Test CRC B3A5AE34
Copy CRC B3A5AE34
Track not present in AccurateRip database
Copy OK
Track 6
Filename C:\EACrips\06 - Laughing Owl.wav
Peak level 94.6 %
Track quality 100.0 %
Test CRC 1068975B
Copy CRC 1068975B
Track not present in AccurateRip database
Copy OK
Track 7
Filename C:\EACrips\07 - Archaeopteryx.wav
Peak level 96.6 %
Track quality 100.0 %
Test CRC ED6456A3
Copy CRC ED6456A3
Track not present in AccurateRip database
Copy OK
Track 8
Filename C:\EACrips\08 - Solitaire.wav
Peak level 96.6 %
Track quality 100.0 %
Test CRC 18C6D6A1
Copy CRC 18C6D6A1
Track not present in AccurateRip database
Copy OK
Track 9
Filename C:\EACrips\09 - Piopio.wav
Peak level 96.6 %
Track quality 100.0 %
Test CRC C398E037
Copy CRC C398E037
Track not present in AccurateRip database
Copy OK
Track 10
Filename C:\EACrips\10 - The Zapata Rail.wav
Peak level 96.6 %
Track quality 100.0 %
Test CRC A5346B0A
Copy CRC A5346B0A
Track not present in AccurateRip database
Copy OK
Track 11
Filename C:\EACrips\11 - Kakawahie.wav
Peak level 96.6 %
Track quality 99.9 %
Test CRC 80572C0E
Copy CRC 80572C0E
Track not present in AccurateRip database
Copy OK
Track 12
Filename C:\EACrips\12 - Magdelena.wav
Peak level 91.1 %
Track quality 99.9 %
Test CRC 82AE284F
Copy CRC 82AE284F
Track not present in AccurateRip database
Copy OK
None of the tracks are present in the AccurateRip database
No errors occurred
End of status report
 
Содержание индексной карты (.CUE)
REM GENRE Jazz
REM DATE 2009
REM DISCID A80CF30C
REM COMMENT "ExactAudioCopy v0.99pb3"
PERFORMER "John Zorn"
TITLE "O'o"
FILE "01 - Miller's Crake.wav" WAVE
TRACK 01 AUDIO
TITLE "Miller's Crake"
PERFORMER "John Zorn"
INDEX 01 00:00:00
FILE "02 - Akiola.wav" WAVE
TRACK 02 AUDIO
TITLE "Akiola"
PERFORMER "John Zorn"
INDEX 01 00:00:00
FILE "03 - Po'o'uli.wav" WAVE
TRACK 03 AUDIO
TITLE "Po'o'uli"
PERFORMER "John Zorn"
INDEX 01 00:00:00
FILE "04 - Little Bittern.wav" WAVE
TRACK 04 AUDIO
TITLE "Little Bittern"
PERFORMER "John Zorn"
INDEX 01 00:00:00
FILE "05 - Mysterious Starling.wav" WAVE
TRACK 05 AUDIO
TITLE "Mysterious Starling"
PERFORMER "John Zorn"
INDEX 01 00:00:00
FILE "06 - Laughing Owl.wav" WAVE
TRACK 06 AUDIO
TITLE "Laughing Owl"
PERFORMER "John Zorn"
INDEX 01 00:00:00
FILE "07 - Archaeopteryx.wav" WAVE
TRACK 07 AUDIO
TITLE "Archaeopteryx"
PERFORMER "John Zorn"
INDEX 01 00:00:00
FILE "08 - Solitaire.wav" WAVE
TRACK 08 AUDIO
TITLE "Solitaire"
PERFORMER "John Zorn"
INDEX 01 00:00:00
FILE "09 - Piopio.wav" WAVE
TRACK 09 AUDIO
TITLE "Piopio"
PERFORMER "John Zorn"
INDEX 01 00:00:00
FILE "10 - The Zapata Rail.wav" WAVE
TRACK 10 AUDIO
TITLE "The Zapata Rail"
PERFORMER "John Zorn"
INDEX 01 00:00:00
FILE "11 - Kakawahie.wav" WAVE
TRACK 11 AUDIO
TITLE "Kakawahie"
PERFORMER "John Zorn"
INDEX 01 00:00:00
FILE "12 - Magdelena.wav" WAVE
TRACK 12 AUDIO
TITLE "Magdelena"
PERFORMER "John Zorn"
INDEX 01 00:00:00
 
Лог проверки качества
AUDIOCHECKER v2.0 beta (build 457) - by Dester - opdester@freemail.hu
~~~~~~~~~~~~~~~~~~~~~~~~~~~~~~~~~~
-=== DO NOT EDIT THIS FILE! ===-
Path: ...\John Zorn_O'o_2009
01 -=- 12 - Magdelena.flac -=- CDDA (100%)
02 -=- 01 - Miller's Crake.flac -=- CDDA (100%)
03 -=- 02 - Akiola.flac -=- CDDA (100%)
04 -=- 03 - Po'o'uli.flac -=- CDDA (100%)
05 -=- 04 - Little Bittern.flac -=- CDDA (100%)
06 -=- 05 - Mysterious Starling.flac -=- CDDA (100%)
07 -=- 06 - Laughing Owl.flac -=- CDDA (62%)
08 -=- 07 - Archaeopteryx.flac -=- CDDA (100%)
09 -=- 08 - Solitaire.flac -=- CDDA (100%)
10 -=- 09 - Piopio.flac -=- CDDA (100%)
11 -=- 10 - The Zapata Rail.flac -=- CDDA (100%)
12 -=- 11 - Kakawahie.flac -=- CDDA (94%)
Summary 96,33% CDDA
265718212
 
Об альбоме (сборнике)
Прогавайский!
 
Состав
Cyro Baptista: Percussion
Joey Baron: Drums
Trevor Dunn: Bass
Marc Ribot: Guitar
Jamie Saft: Piano, Organ
Kenny Wollesen: Vibraphone
По всем вопросам пишите личное сообщение пользователю M0p94ok.
13:25
145
Нет комментариев. Ваш будет первым!