Вы используете незарегистрированную версию компонента "Вкладки"!

Поиск

(Avant-Garde Jazz, Contemporary) [CD] Zanussi 5 - Live in Coimbra - 2014, APE (image+.cue), lossless

(Avant-Garde Jazz, Contemporary) [CD] Zanussi 5 - Live in Coimbra - 2014, APE (image+.cue), lossless
Треклист:
Zanussi 5 / Live in Coimbra
Жанр: Avant-Garde Jazz, Contemporary
Носитель: CD
Страна-производитель диска (релиза): Португалия
Год издания: 2014
Издатель (лейбл): Clean Feed
Номер по каталогу: CF314CD
Страна исполнителя (группы): Норвегия
Аудиокодек: APE (*.ape)
Тип рипа: image+.cue
Битрейт аудио: lossless
Продолжительность: 47:33
Источник (релизер): Я
Наличие сканов в содержимом раздачи: нет
Треклист:
1. Celestial 4:35
2. Blood Flower 9:15
3. Hidden People 12:12
4. Double Dream 5:08
5. All Wrath 16:2
 
Лог создания рипа
Exact Audio Copy V1.0 beta 3 from 29. August 2011
Отчёт EAC об извлечении, выполненном 12. мая 2015, 20:48
Zanussi 5 / Live In Coimbra
Дисковод: TSSTcorpCDRWDVD TSL462D Adapter: 3 ID: 0
Режим чтения : Достоверность
Использование точного потока : Да
Отключение кэша аудио : Да
Использование указателей C2 : Нет
Коррекция смещения при чтении : 6
Способность читать области Lead-in и Lead-out : Нет
Заполнение пропущенных сэмплов тишиной : Да
Удаление блоков с тишиной в начале и конце : Нет
При вычислениях CRC использовались нулевые сэмплы : Да
Интерфейс : Встроенный Win32-интерфейс для Win NT/2000
Выходной формат : Внутренние WAV-операции
Формат сэмплов : 44.100 Гц; 16 бит; стерео
TOC извлечённого CD
Трек | Старт | Длительность | Начальный сектор | Конечный сектор
---------------------------------------------------------------------
1 | 0:00.00 | 4:34.53 | 0 | 20602
2 | 4:34.53 | 9:15.28 | 20603 | 62255
3 | 13:50.06 | 12:11.55 | 62256 | 117135
4 | 26:01.61 | 5:08.06 | 117136 | 140241
5 | 31:09.67 | 16:23.61 | 140242 | 214027
Характеристики диапазона извлечения и сообщения об ошибках
Выбранный диапазон
Имя файла E:\Music\Zanussi 5 - Live In Coimbra (2014)\Zanussi 5 - Live In Coimbra.wav
Пиковый уровень 99.6 %
Скорость извлечения 4.5 X
Качество диапазона 100.0 %
CRC теста C9B33942
CRC копии C9B33942
Копирование... OK
Ошибок не произошло
AccurateRip: сводка
Трек 1 отсутствует в базе данных
Трек 2 отсутствует в базе данных
Трек 3 отсутствует в базе данных
Трек 4 отсутствует в базе данных
Трек 5 отсутствует в базе данных
Ни одного трека нет в базе AccurateRip
Конец отчёта
==== Контрольная сумма отчёта 44FC3FDDFD01E1C3B6CB5C9E05F91D524227099213DFF12FCD49FD88274E4C40 ====
 
Содержание индексной карты (.CUE)
REM GENRE Jazz
REM DATE 2014
REM DISCID 3E0B2505
REM COMMENT "ExactAudioCopy v1.0b3"
PERFORMER "Zanussi 5"
TITLE "Live In Coimbra"
FILE "Zanussi 5 - Live In Coimbra.wav" WAVE
TRACK 01 AUDIO
TITLE "Celestial"
PERFORMER "Zanussi 5"
INDEX 01 00:00:00
TRACK 02 AUDIO
TITLE "Blood Flower"
PERFORMER "Zanussi 5"
INDEX 00 04:32:54
INDEX 01 04:34:53
TRACK 03 AUDIO
TITLE "Hidden People"
PERFORMER "Zanussi 5"
INDEX 00 13:48:06
INDEX 01 13:50:06
TRACK 04 AUDIO
TITLE "Double Dream"
PERFORMER "Zanussi 5"
INDEX 00 25:59:62
INDEX 01 26:01:61
TRACK 05 AUDIO
TITLE "All Wrath"
PERFORMER "Zanussi 5"
INDEX 00 31:07:68
INDEX 01 31:09:67
 
Состав
Kjetil Moster-tenor and soprano saxophone, clarinet
Jorgen Mathisen-tenor saxophone and clarinet
Eirik Hegdal-baritone saxophone and clarinet
Gard Nilssen-drums
Per Zanussi-double bass
По всем вопросам пишите личное сообщение пользователю M0p94ok.
13:25
138
Нет комментариев. Ваш будет первым!