Вы используете незарегистрированную версию компонента "Вкладки"!

Поиск

(Free Jazz) [CD] Frank Lowe Trio (Tim Flood, Charles Moffett) - Bodies & Soul - 1996, FLAC (tracks+.cue), lossless

(Free Jazz) [CD] Frank Lowe Trio (Tim Flood, Charles Moffett) - Bodies & Soul - 1996, FLAC (tracks+.cue), lossless
Треклист:
Frank Lowe Trio / Bodies & Soul
Жанр: Free Jazz
Носитель: CD
Страна-производитель диска (релиза): US
Год издания: 1996
Издатель (лейбл): CIMP
Номер по каталогу: CIMP #104
Аудиокодек: FLAC (*.flac)
Тип рипа: tracks+.cue
Битрейт аудио: lossless
Продолжительность: 63:41
Источник (релизер): whatcd (ElegantDandy)
Наличие сканов в содержимом раздачи: нет
Треклист:
1. Impressions (Composed By – John Coltrane) 9:51
2. Soul Of A Fortune 2:02
3. Bethera (Composed By – Pharoah Sanders) 6:18
4. Nothing But Love 5:07
5. Don One #1 7:04
6. Don One #2 6:01
7. Happy House (Composed By – Ornette Coleman) 6:09
8. For Louie (Composed By – Art Ensemble Of Chicago, The) 8:43
9. Art Deco (Composed By – Don Cherry) 7:24
10. Body And Soul 4:24
 
Лог создания рипа
Exact Audio Copy V1.0 beta 3 from 29. August 2011
EAC extraction logfile from 11. May 2015, 6:01
Frank Lowe Trio / Bodies & Soul
Used drive : HL-DT-STDVDRAM SP60NB50 Adapter: 2 ID: 0
Read mode : Secure
Utilize accurate stream : Yes
Defeat audio cache : Yes
Make use of C2 pointers : No
Read offset correction : 6
Overread into Lead-In and Lead-Out : No
Fill up missing offset samples with silence : Yes
Delete leading and trailing silent blocks : No
Null samples used in CRC calculations : Yes
Used interface : Native Win32 interface for Win NT & 2000
Gap handling : Appended to previous track
Used output format : User Defined Encoder
Selected bitrate : 1024 kBit/s
Quality : High
Add ID3 tag : No
Command line compressor : C:\Program Files (x86)\Exact Audio Copy\Flac\flac.exe
Additional command line options : -8 -V -T "ARTIST=%artist%" -T "TITLE=%title%" -T "ALBUM=%albumtitle%" -T "DATE=%year%" -T "TRACKNUMBER=%tracknr%" -T "GENRE=%genre%" -T "PERFORMER=%albuminterpret%" -T "COMPOSER=%composer%" %haslyrics%--tag-from-file=LYRICS="%lyricsfile%"%haslyrics% -T "ALBUMARTIST=%albumartist%" -T "DISCNUMBER=%cdnumber%" -T "TOTALDISCS=%totalcds%" -T "TOTALTRACKS=%numtracks%" -T "COMMENT=%comment%" %source% -o %dest%
TOC of the extracted CD
Track | Start | Length | Start sector | End sector
---------------------------------------------------------
1 | 0:01.00 | 9:55.45 | 75 | 44744
2 | 9:56.45 | 2:06.60 | 44745 | 54254
3 | 12:03.30 | 6:22.01 | 54255 | 82905
4 | 18:25.31 | 5:10.67 | 82906 | 106222
5 | 23:36.23 | 7:08.44 | 106223 | 138366
6 | 30:44.67 | 6:04.71 | 138367 | 165737
7 | 36:49.63 | 6:13.31 | 165738 | 193743
8 | 43:03.19 | 8:47.06 | 193744 | 233274
9 | 51:50.25 | 7:27.67 | 233275 | 266866
10 | 59:18.17 | 4:24.27 | 266867 | 286693
Track 1
Filename C:\FLAC Rips\Frank Lowe Trio ‎- Bodies & Soul (1995) [FLAC] {CIMP #104}\01 - Impressions.wav
Pre-gap length 0:00:03.00
Peak level 76.0 %
Extraction speed 1.3 X
Track quality 99.9 %
Test CRC 912C65E9
Copy CRC 912C65E9
Accurately ripped (confidence 1) [847BD50B] (AR v2)
Copy OK
Track 2
Filename C:\FLAC Rips\Frank Lowe Trio ‎- Bodies & Soul (1995) [FLAC] {CIMP #104}\02 - Soul of Fortune.wav
Pre-gap length 0:00:03.20
Peak level 41.4 %
Extraction speed 1.0 X
Track quality 99.9 %
Test CRC F4A397E6
Copy CRC F4A397E6
Accurately ripped (confidence 1) [C1B46377] (AR v2)
Copy OK
Track 3
Filename C:\FLAC Rips\Frank Lowe Trio ‎- Bodies & Soul (1995) [FLAC] {CIMP #104}\03 - Bethera.wav
Pre-gap length 0:00:03.20
Peak level 76.7 %
Extraction speed 1.6 X
Track quality 100.0 %
Test CRC E4167F9C
Copy CRC E4167F9C
Accurately ripped (confidence 1) [C3F845B6] (AR v2)
Copy OK
Track 4
Filename C:\FLAC Rips\Frank Lowe Trio ‎- Bodies & Soul (1995) [FLAC] {CIMP #104}\04 - Nothing ut Love.wav
Pre-gap length 0:00:03.20
Peak level 44.4 %
Extraction speed 1.8 X
Track quality 100.0 %
Test CRC 1A3C0B0B
Copy CRC 1A3C0B0B
Accurately ripped (confidence 1) [2B47285F] (AR v2)
Copy OK
Track 5
Filename C:\FLAC Rips\Frank Lowe Trio ‎- Bodies & Soul (1995) [FLAC] {CIMP #104}\05 - Don One #1.wav
Pre-gap length 0:00:03.20
Peak level 82.2 %
Extraction speed 1.8 X
Track quality 99.9 %
Test CRC 6C16E12C
Copy CRC 6C16E12C
Accurately ripped (confidence 1) [36BCD7DE] (AR v2)
Copy OK
Track 6
Filename C:\FLAC Rips\Frank Lowe Trio ‎- Bodies & Soul (1995) [FLAC] {CIMP #104}\06 - Don One #2.wav
Pre-gap length 0:00:03.20
Peak level 100.0 %
Extraction speed 2.1 X
Track quality 100.0 %
Test CRC 02ADEAB8
Copy CRC 02ADEAB8
Accurately ripped (confidence 1) [43167910] (AR v2)
Copy OK
Track 7
Filename C:\FLAC Rips\Frank Lowe Trio ‎- Bodies & Soul (1995) [FLAC] {CIMP #104}\07 - Happy House.wav
Pre-gap length 0:00:03.20
Peak level 84.0 %
Extraction speed 2.2 X
Track quality 100.0 %
Test CRC 27F9D297
Copy CRC 27F9D297
Accurately ripped (confidence 1) [7BCE781C] (AR v2)
Copy OK
Track 8
Filename C:\FLAC Rips\Frank Lowe Trio ‎- Bodies & Soul (1995) [FLAC] {CIMP #104}\08 - For Louie.wav
Pre-gap length 0:00:03.20
Peak level 25.2 %
Extraction speed 2.4 X
Track quality 100.0 %
Test CRC 79389D2C
Copy CRC 79389D2C
Accurately ripped (confidence 1) [7C96FDC8] (AR v2)
Copy OK
Track 9
Filename C:\FLAC Rips\Frank Lowe Trio ‎- Bodies & Soul (1995) [FLAC] {CIMP #104}\09 - Art Deco.wav
Pre-gap length 0:00:03.20
Peak level 49.8 %
Extraction speed 2.5 X
Track quality 100.0 %
Test CRC 88D30191
Copy CRC 88D30191
Accurately ripped (confidence 1) [1D8F9F06] (AR v2)
Copy OK
Track 10
Filename C:\FLAC Rips\Frank Lowe Trio ‎- Bodies & Soul (1995) [FLAC] {CIMP #104}\10 - Body & Soul.wav
Pre-gap length 0:00:03.20
Peak level 16.2 %
Extraction speed 2.5 X
Track quality 100.0 %
Test CRC 6CEB1E07
Copy CRC 6CEB1E07
Accurately ripped (confidence 1) [00EAB4A8] (AR v2)
Copy OK
All tracks accurately ripped
No errors occurred
End of status report
==== Log checksum FFB032BC241DB5619F9D55C7F9EE0EA1D82DF04005D23850B0748A3FA1164397 ====
 
Содержание индексной карты (.CUE)
REM GENRE Jazz
REM DATE 1995
REM DISCID 800EED0A
REM COMMENT "ExactAudioCopy v1.0b3"
PERFORMER "Frank Lowe Trio"
TITLE "Bodies & Soul"
FILE "01 - Impressions.wav" WAVE
TRACK 01 AUDIO
TITLE "Impressions"
PERFORMER "Frank Lowe Trio"
FLAGS DCP
PREGAP 00:01:00
INDEX 01 00:00:00
TRACK 02 AUDIO
TITLE "Soul of Fortune"
PERFORMER "Frank Lowe Trio"
FLAGS DCP
INDEX 00 09:52:30
FILE "02 - Soul of Fortune.wav" WAVE
INDEX 01 00:00:00
TRACK 03 AUDIO
TITLE "Bethera"
PERFORMER "Frank Lowe Trio"
FLAGS DCP
INDEX 00 02:03:45
FILE "03 - Bethera.wav" WAVE
INDEX 01 00:00:00
TRACK 04 AUDIO
TITLE "Nothing ut Love"
PERFORMER "Frank Lowe Trio"
FLAGS DCP
INDEX 00 06:18:61
FILE "04 - Nothing ut Love.wav" WAVE
INDEX 01 00:00:00
TRACK 05 AUDIO
TITLE "Don One #1"
PERFORMER "Frank Lowe Trio"
FLAGS DCP
INDEX 00 05:07:52
FILE "05 - Don One #1.wav" WAVE
INDEX 01 00:00:00
TRACK 06 AUDIO
TITLE "Don One #2"
PERFORMER "Frank Lowe Trio"
FLAGS DCP
INDEX 00 07:05:29
FILE "06 - Don One #2.wav" WAVE
INDEX 01 00:00:00
TRACK 07 AUDIO
TITLE "Happy House"
PERFORMER "Frank Lowe Trio"
FLAGS DCP
INDEX 00 06:01:56
FILE "07 - Happy House.wav" WAVE
INDEX 01 00:00:00
TRACK 08 AUDIO
TITLE "For Louie"
PERFORMER "Frank Lowe Trio"
FLAGS DCP
INDEX 00 06:10:16
FILE "08 - For Louie.wav" WAVE
INDEX 01 00:00:00
TRACK 09 AUDIO
TITLE "Art Deco"
PERFORMER "Frank Lowe Trio"
FLAGS DCP
INDEX 00 08:43:66
FILE "09 - Art Deco.wav" WAVE
INDEX 01 00:00:00
TRACK 10 AUDIO
TITLE "Body & Soul"
PERFORMER "Frank Lowe Trio"
FLAGS DCP
INDEX 00 07:24:52
FILE "10 - Body & Soul.wav" WAVE
INDEX 01 00:00:00
Доп. информация: Recorded at The Spirit Room, Rossie, New York, November 18-19, 1995.
 
Об альбоме (сборнике)
Saxophonist Frank Lowe is without exception the most direct disciple of Don Cherry's musical transculturalism. His own method of playing and improvising calls not only on the jazz lineage's great masters on his own horn, but those of others -- like Cherry's pocket trumpet or Mal Waldron's pianism -- and from the traditions of the world's great musics, whether they be Javanese court music, West African griot folk songs, Caribbean pop music, American blues and pop, or Japanese gagaku for inspiration. This trio date, recorded in late 1995, featured the great Charles Moffett on drums and was the recording debut of the Midwestern bass giant Tim Flood. According to the notes, the session began with less than auspicious results -- it took seven takes of "Impressions," two of Cherry's "Art Deco" and four of "The Blessing" to make things move. "The Blessing" didn't even make the record. The master takes of the other two tunes are gorgeous and only hint at the other things found here, including a completely out to lunch "Happy House," a wildly soulful read of Pharoah Sanders' "Bethera," and the Art Ensemble's "For Louie." Lowe's own compositions "Soul of Fortune," the faux-funky "Nothing But Love," which touches upon calypso, and "Don" numbers one and two, are among Lowe's finest, full of deep emotion, sharp accents, and rhythmic invention of all three players. His intervallic sense is warm and accessible and his modal invention is anchored in a love of chromatic and timbral sophistication. The final track, a read of "Body & Soul," is a virtual reinvention of the tune from its harmony, which is reduced and then restructured, to its melody, which is syncopated according to off beat changes. It's a fitting end to this eye and ear opening session.
 
Состав
Bass – Tim Flood
Drums – Charles Moffett
Tenor Saxophone – Frank Lowe
По всем вопросам пишите личное сообщение пользователю M0p94ok.
13:26
142
Нет комментариев. Ваш будет первым!