Поиск

(Free Jazz, Fusion, NotTwo Records) [CD] Musiconspiracy (Jacek Kochan, Joe Fonda, Tellef Øgrim (Ogrim), Franz Hautzinger) - Do I the In? - 2008, FLAC (tracks+.cue), lossless

(Free Jazz, Fusion, NotTwo Records) [CD] Musiconspiracy (Jacek Kochan, Joe Fonda, Tellef Øgrim (Ogrim), Franz Hautzinger) - Do I the In? - 2008, FLAC (tracks+.cue), lossless
Треклист:
Müsiconspiracy / Do I the In?
Жанр: Free Jazz, Fusion
Носитель: CD
Страна-производитель диска (релиза): Poland
Год издания: 2008
Издатель (лейбл): NotTwo Records
Номер по каталогу: MW 801-2
Аудиокодек: FLAC (*.flac)
Тип рипа: tracks+.cue
Битрейт аудио: lossless
Продолжительность: 1:08:32
Источник (релизер): я
Наличие сканов в содержимом раздачи: да
Треклист:
1. Song for My Mother (Joe Fonda) 9:07
2. Golden Angel (Franz Hautzinger) 3:50
3. Feed the Hamster (Tellef Øgrim) 5:45
4. Famous Disappearing Act (Jacek Kochan) 3:17
5. Ectoplasmatics (Tellef Øgrim) 9:17
6. Summer Is Far (Franz Hautzinger) 5:20
7. Before or After? (Kochan / Fonda / Hautzinger / Øgrim) 8:06
8. For Mingus (Joe Fonda) 7:38
9. Restless Apple (Kochan / Fonda / Hautzinger / Øgrim) 6:18
10. Organic Boots (Kochan / Fonda / Hautzinger / Øgrim) 3:41
11. Choose the Mud (Jacek Kochan) 6:12
Recorded September 19th 2007 at Alchemia, Kraków.
Jacek Kochan – Drums, Live Electronics
Joe Fonda – Bass
Franz Hautzinger – Quartertone Trumpet
Tellef Øgrim – Guitar
 
Лог создания рипа
Exact Audio Copy V1.0 beta 4 from 7. December 2014
EAC extraction logfile from 4. March 2015, 13:43
Müsiconspiracy / Do I the In?
Used drive : SlimtypeeNAU508 5 Adapter: 1 ID: 1
Read mode : Secure
Utilize accurate stream : Yes
Defeat audio cache : Yes
Make use of C2 pointers : No
Read offset correction : 6
Overread into Lead-In and Lead-Out : No
Fill up missing offset samples with silence : Yes
Delete leading and trailing silent blocks : No
Null samples used in CRC calculations : Yes
Used interface : Native Win32 interface for Win NT & 2000
Gap handling : Appended to previous track
Used output format : User Defined Encoder
Selected bitrate : 896 kBit/s
Quality : High
Add ID3 tag : No
Command line compressor : C:\Program Files (x86)\Exact Audio Copy\Flac\flac.exe
Additional command line options : -8 -V -T "ARTIST=%artist%" -T "TITLE=%title%" -T "ALBUM=%albumtitle%" -T "DATE=%year%" -T "TRACKNUMBER=%tracknr%" -T "TOTALTRACKS=%numtracks%" -T "GENRE=%genre%" -T "ALBUMARTIST=%albumartist%" -T "ALBUM ARTIST=%albumartist%" -T "COMMENT=EAC Secure Mode, Test & Copy, AccurateRip, FLAC -8" %source%
TOC of the extracted CD
Track | Start | Length | Start sector | End sector
---------------------------------------------------------
1 | 0:00.00 | 9:06.62 | 0 | 41011
2 | 9:06.62 | 3:50.00 | 41012 | 58261
3 | 12:56.62 | 5:44.55 | 58262 | 84116
4 | 18:41.42 | 3:17.34 | 84117 | 98925
5 | 21:59.01 | 9:16.65 | 98926 | 140690
6 | 31:15.66 | 5:20.34 | 140691 | 164724
7 | 36:36.25 | 8:06.31 | 164725 | 201205
8 | 44:42.56 | 7:38.29 | 201206 | 235584
9 | 52:21.10 | 6:18.03 | 235585 | 263937
10 | 58:39.13 | 3:40.74 | 263938 | 280511
11 | 62:20.12 | 6:12.00 | 280512 | 308411
Track 1
Filename C:\EAC rips\01 - Song for My Mother.wav
Pre-gap length 0:00:02.00
Peak level 96.6 %
Extraction speed 2.7 X
Track quality 100.0 %
Test CRC 3970D43F
Copy CRC 3970D43F
Track not present in AccurateRip database
Copy OK
Track 2
Filename C:\EAC rips\02 - Golden Angel.wav
Peak level 82.6 %
Extraction speed 2.8 X
Track quality 100.0 %
Test CRC B5A8A1E6
Copy CRC B5A8A1E6
Track not present in AccurateRip database
Copy OK
Track 3
Filename C:\EAC rips\03 - Feed the Hamster.wav
Peak level 96.6 %
Extraction speed 3.2 X
Track quality 100.0 %
Test CRC E399C268
Copy CRC E399C268
Track not present in AccurateRip database
Copy OK
Track 4
Filename C:\EAC rips\04 - Famous Disappearing Act.wav
Peak level 96.6 %
Extraction speed 3.1 X
Track quality 100.0 %
Test CRC 85795127
Copy CRC 85795127
Track not present in AccurateRip database
Copy OK
Track 5
Filename C:\EAC rips\05 - Ectoplasmatics.wav
Peak level 96.6 %
Extraction speed 3.8 X
Track quality 100.0 %
Test CRC 66B787A3
Copy CRC 66B787A3
Track not present in AccurateRip database
Copy OK
Track 6
Filename C:\EAC rips\06 - Summer Is Far.wav
Peak level 96.6 %
Extraction speed 3.8 X
Track quality 100.0 %
Test CRC 57341B0B
Copy CRC 57341B0B
Track not present in AccurateRip database
Copy OK
Track 7
Filename C:\EAC rips\07 - Before or After_.wav
Pre-gap length 0:00:02.00
Peak level 56.5 %
Extraction speed 4.2 X
Track quality 100.0 %
Test CRC E613B839
Copy CRC E613B839
Track not present in AccurateRip database
Copy OK
Track 8
Filename C:\EAC rips\08 - For Mingus.wav
Peak level 96.6 %
Extraction speed 4.5 X
Track quality 100.0 %
Test CRC D3E95DFC
Copy CRC D3E95DFC
Track not present in AccurateRip database
Copy OK
Track 9
Filename C:\EAC rips\09 - Restless Apple.wav
Peak level 96.6 %
Extraction speed 4.6 X
Track quality 100.0 %
Test CRC 3A5455D3
Copy CRC 3A5455D3
Track not present in AccurateRip database
Copy OK
Track 10
Filename C:\EAC rips\10 - Organic Boots.wav
Peak level 91.4 %
Extraction speed 4.5 X
Track quality 100.0 %
Test CRC 5F893CDB
Copy CRC 5F893CDB
Track not present in AccurateRip database
Copy OK
Track 11
Filename C:\EAC rips\11 - Choose the Mud.wav
Peak level 96.6 %
Extraction speed 4.7 X
Track quality 100.0 %
Test CRC D98705B9
Copy CRC D98705B9
Track not present in AccurateRip database
Copy OK
None of the tracks are present in the AccurateRip database
No errors occurred
End of status report
---- CUETools DB Plugin V2.1.4
[CTDB TOCID: jJV_TW0XTZh1WGyWHooRpF80LCI-] disk not present in database
Submit result: jJV_TW0XTZh1WGyWHooRpF80LCI- has been uploaded
==== Log checksum 2B6649371E4250F8CF54E68F19FD1F7F17ED544707975FCCE92B5058D2288D94 ====
 
Содержание индексной карты (.CUE)
REM GENRE "NotTwo MW 801-2"
REM DATE 2008
REM DISCID 9C10100B
REM COMMENT "ExactAudioCopy v1.0b4"
PERFORMER "Müsiconspiracy"
TITLE "Do I the In?"
FILE "01 - Song for My Mother.wav" WAVE
TRACK 01 AUDIO
TITLE "Song for My Mother"
PERFORMER "Müsiconspiracy"
INDEX 01 00:00:00
FILE "02 - Golden Angel.wav" WAVE
TRACK 02 AUDIO
TITLE "Golden Angel"
PERFORMER "Müsiconspiracy"
INDEX 01 00:00:00
FILE "03 - Feed the Hamster.wav" WAVE
TRACK 03 AUDIO
TITLE "Feed the Hamster"
PERFORMER "Müsiconspiracy"
INDEX 01 00:00:00
FILE "04 - Famous Disappearing Act.wav" WAVE
TRACK 04 AUDIO
TITLE "Famous Disappearing Act"
PERFORMER "Müsiconspiracy"
INDEX 01 00:00:00
FILE "05 - Ectoplasmatics.wav" WAVE
TRACK 05 AUDIO
TITLE "Ectoplasmatics"
PERFORMER "Müsiconspiracy"
INDEX 01 00:00:00
FILE "06 - Summer Is Far.wav" WAVE
TRACK 06 AUDIO
TITLE "Summer Is Far"
PERFORMER "Müsiconspiracy"
INDEX 01 00:00:00
TRACK 07 AUDIO
TITLE "Before or After?"
PERFORMER "Müsiconspiracy"
INDEX 00 05:18:34
FILE "07 - Before or After_.wav" WAVE
INDEX 01 00:00:00
FILE "08 - For Mingus.wav" WAVE
TRACK 08 AUDIO
TITLE "For Mingus"
PERFORMER "Müsiconspiracy"
INDEX 01 00:00:00
FILE "09 - Restless Apple.wav" WAVE
TRACK 09 AUDIO
TITLE "Restless Apple"
PERFORMER "Müsiconspiracy"
INDEX 01 00:00:00
FILE "10 - Organic Boots.wav" WAVE
TRACK 10 AUDIO
TITLE "Organic Boots"
PERFORMER "Müsiconspiracy"
INDEX 01 00:00:00
FILE "11 - Choose the Mud.wav" WAVE
TRACK 11 AUDIO
TITLE "Choose the Mud"
PERFORMER "Müsiconspiracy"
INDEX 01 00:00:00
По всем вопросам пишите личное сообщение пользователю M0p94ok.
13:27
171
Нет комментариев. Ваш будет первым!