Поиск

(Twist/Mambo) Perez Prado - Now! Twist Goes Latin / Exotic Suites Of The Americas - 1962, APE (image+.cue), lossless

(Twist/Mambo) Perez Prado - Now! Twist Goes Latin / Exotic Suites Of The Americas - 1962, APE (image+.cue), lossless
Треклист:
Perez Prado / Now! Twist Goes Latin & Exotic Suite Of The Americas (1962)
Жанр: Twist/Mambo
Год выпуска диска: 1962
Производитель диска: U.S.A.
Аудио кодек: APE
Тип рипа: image+.cue
Битрейт аудио: lossless
Продолжительность: 0:55:28
Трэклист:
1962 - Now! Twist Goes Latin
01 Ti-Pi-Tin Twist 2:14
02 The Twist Of Hava Nageela 2:13
03 Sway (Quien Sera) Twist 2:01
04 Saigon Twist 2:15
05 La Raspa Twist 2:37
06 Venezuela Twist 2:10
07 Patricia Twist 2:37
08 St. Louis Blues Twist 2:36
09 Sabra Twist 2:17
10 Cachita (Oyeme) Twist 2:07
11 Anna Twist 2:30
12 Cherry Pink and Apple Blossom White Twist 2:08
1962 - Exotic Suite Of The Americas
13 Exotic Suite Of The Americas 16:22
(Theme Of Two Worlds - Amoha - Criollo - Theme Of Two Worlds
Uamanna Africano - Blues In C Major - Theme Of Two Worlds)
14 Midnight In Jamaica 2:15
15 Mama Yo Quiero 2:06
16 Son Of A Gun 2:00
17 Jacqueline & Caroline 2:16
18 El Relicario 2:10
19 I Could Have Danced All Night 2:07
 
Лог ЕАС
Exact Audio Copy V0.99 prebeta 4 from 23. January 2008
EAC extraction logfile from 12. March 2009, 18:39
Perez Prado / Twist Goes Latin/Ecotic Suite Of The Americas
Used drive : Optiarc DVD RW AD-5200S Adapter: 2 ID: 0
Read mode : Secure
Utilize accurate stream : Yes
Defeat audio cache : Yes
Make use of C2 pointers : No
Read offset correction : 48
Overread into Lead-In and Lead-Out : No
Fill up missing offset samples with silence : Yes
Delete leading and trailing silent blocks : No
Null samples used in CRC calculations : No
Used interface : Native Win32 interface for Win NT & 2000
Used output format : Internal WAV Routines
Sample format : 44.100 Hz; 16 Bit; Stereo
TOC of the extracted CD
Track | Start | Length | Start sector | End sector
---------------------------------------------------------
1 | 0:00.00 | 2:15.46 | 0 | 10170
2 | 2:15.46 | 2:14.39 | 10171 | 20259
3 | 4:30.10 | 2:03.01 | 20260 | 29485
4 | 6:33.11 | 2:16.53 | 29486 | 39738
5 | 8:49.64 | 2:39.24 | 39739 | 51687
6 | 11:29.13 | 2:11.48 | 51688 | 61560
7 | 13:40.61 | 2:38.61 | 61561 | 73471
8 | 16:19.47 | 2:37.39 | 73472 | 85285
9 | 18:57.11 | 2:18.74 | 85286 | 95709
10 | 21:16.10 | 2:08.64 | 95710 | 105373
11 | 23:24.74 | 2:32.27 | 105374 | 116800
12 | 25:57.26 | 2:09.65 | 116801 | 126540
13 | 28:07.16 | 16:24.04 | 126541 | 200344
14 | 44:31.20 | 2:16.42 | 200345 | 210586
15 | 46:47.62 | 2:08.07 | 210587 | 220193
16 | 48:55.69 | 2:01.51 | 220194 | 229319
17 | 50:57.45 | 2:17.62 | 229320 | 239656
18 | 53:15.32 | 2:12.25 | 239657 | 249581
19 | 55:27.57 | 2:07.22 | 249582 | 259128
Range status and errors
Selected range
Filename E:\FlacTemp\Perez Prado - Twist Goes Latin Ecotic Suite Of The Americas.wav
Peak level 94.2 %
Range quality 100.0 %
Copy CRC 1965C75B
Copy OK
No errors occurred
End of status report
Доп. информация: Знаменитый король мамбо шёл в ногу со временем!
Download available for power users only.
05:19
235
Нет комментариев. Ваш будет первым!