Поиск

(Jazz, Tango) Gary Burton - Astor Piazzolla Reunion: A Tango Excursion - 1998, FLAC (tracks+.cue), lossless

(Jazz, Tango) Gary Burton - Astor Piazzolla Reunion: A Tango Excursion - 1998, FLAC (tracks+.cue), lossless
Треклист:
Gary Burton - Astor Piazzolla Reunion: A Tango Excursion
Жанр: Jazz, Tango
Год выпуска диска: 1998
Производитель диска: Concord Jazz
Аудио кодек: FLAC
Тип рипа: tracks+.cue
Битрейт аудио: lossless
Продолжительность: 01:07:41
Трэклист:
01. Biyuya
02. Allegro Tangabile
03. Romance Del Diablo
04. Caliente
05. Tanguedia
06. Triunfal
07. Soledad
08. Lunfardo
09. Revirado
10. La Muerte Del Angel
11. Decarisimo
12. Concierto Para Quinteto
13. Mi Refugio
 
EAC
Exact Audio Copy V0.99 prebeta 4 from 23. January 2008
EAC extraction logfile from 9. December 2008, 21:46
Gary Burton / Astor Piazzolla Reunion
Used drive : PLEXTOR CD-R PREMIUM2 Adapter: 1 ID: 1
Read mode : Secure
Utilize accurate stream : Yes
Defeat audio cache : Yes
Make use of C2 pointers : No
Read offset correction : 30
Overread into Lead-In and Lead-Out : No
Fill up missing offset samples with silence : Yes
Delete leading and trailing silent blocks : No
Null samples used in CRC calculations : Yes
Used interface : Installed external ASPI interface
Gap handling : Appended to previous track
Used output format : User Defined Encoder
Selected bitrate : 32 kBit/s
Quality : High
Add ID3 tag : No
Command line compressor : C:\Programmi\FLAC\flac.exe
Additional command line options : -8 -V -T "ARTIST=%a" -T "TITLE=%t" -T "ALBUM=%g" -T "DATE=%y" -T "TRACKNUMBER=%n" -T "GENRE=%m" -T "COMMENT=EAC FLAC -8" %s
TOC of the extracted CD
Track | Start | Length | Start sector | End sector
---------------------------------------------------------
1 | 0:00.00 | 5:52.00 | 0 | 26399
2 | 5:52.00 | 3:41.70 | 26400 | 43044
3 | 9:33.70 | 6:24.02 | 43045 | 71846
4 | 15:57.72 | 4:27.70 | 71847 | 91941
5 | 20:25.67 | 4:40.03 | 91942 | 112944
6 | 25:05.70 | 4:03.62 | 112945 | 131231
7 | 29:09.57 | 7:50.15 | 131232 | 166496
8 | 36:59.72 | 6:09.73 | 166497 | 194244
9 | 43:09.70 | 3:21.07 | 194245 | 209326
10 | 46:31.02 | 3:09.03 | 209327 | 223504
11 | 49:40.05 | 2:40.72 | 223505 | 235576
12 | 52:21.02 | 11:08.03 | 235577 | 285679
13 | 63:29.05 | 4:17.15 | 285680 | 304969
Track 1
Filename D:\My Rip\01 - Biyuya.wav
Pre-gap length 0:00:02.00
Peak level 97.1 %
Track quality 99.9 %
Test CRC 292411BC
Copy CRC 292411BC
Track not present in AccurateRip database
Copy OK
Track 2
Filename D:\My Rip\02 - Allegro Tangabile.wav
Peak level 100.0 %
Track quality 100.0 %
Test CRC 01D59CA8
Copy CRC 01D59CA8
Track not present in AccurateRip database
Copy OK
Track 3
Filename D:\My Rip\03 - Romance Del Diablo.wav
Peak level 87.9 %
Track quality 100.0 %
Test CRC 6E5B1728
Copy CRC 6E5B1728
Track not present in AccurateRip database
Copy OK
Track 4
Filename D:\My Rip\04 - Caliente.wav
Peak level 99.7 %
Track quality 100.0 %
Test CRC 7E8CDB8C
Copy CRC 7E8CDB8C
Track not present in AccurateRip database
Copy OK
Track 5
Filename D:\My Rip\05 - Tanguedia.wav
Peak level 99.6 %
Track quality 100.0 %
Test CRC D2C444EC
Copy CRC D2C444EC
Track not present in AccurateRip database
Copy OK
Track 6
Filename D:\My Rip\06 - Triunfal.wav
Peak level 99.5 %
Track quality 100.0 %
Test CRC 374D5310
Copy CRC 374D5310
Track not present in AccurateRip database
Copy OK
Track 7
Filename D:\My Rip\07 - Soledad.wav
Peak level 99.9 %
Track quality 99.9 %
Test CRC 737576D9
Copy CRC 737576D9
Track not present in AccurateRip database
Copy OK
Track 8
Filename D:\My Rip\08 - Lunfardo.wav
Peak level 95.8 %
Track quality 100.0 %
Test CRC 1B55842D
Copy CRC 1B55842D
Track not present in AccurateRip database
Copy OK
Track 9
Filename D:\My Rip\09 - Revirado.wav
Peak level 99.9 %
Track quality 100.0 %
Test CRC E1A5B818
Copy CRC E1A5B818
Track not present in AccurateRip database
Copy OK
Track 10
Filename D:\My Rip\10 - La Muerte Del Angel.wav
Peak level 99.8 %
Track quality 100.0 %
Test CRC 54C33852
Copy CRC 54C33852
Track not present in AccurateRip database
Copy OK
Track 11
Filename D:\My Rip\11 - Decarisimo.wav
Pre-gap length 0:00:01.73
Peak level 97.4 %
Track quality 100.0 %
Test CRC 3B5D4DDD
Copy CRC 3B5D4DDD
Track not present in AccurateRip database
Copy OK
Track 12
Filename D:\My Rip\12 - Concierto Para Quinteto.wav
Peak level 99.9 %
Track quality 100.0 %
Test CRC 106FFF72
Copy CRC 106FFF72
Track not present in AccurateRip database
Copy OK
Track 13
Filename D:\My Rip\13 - Mi Refugio.wav
Pre-gap length 0:00:01.17
Peak level 88.8 %
Track quality 100.0 %
Test CRC 7647488D
Copy CRC 7647488D
Track not present in AccurateRip database
Copy OK
None of the tracks are present in the AccurateRip database
No errors occurred
End of status report
 
скрытый текст
[1/13] D:\RL\Gary Burton - Astor Piazzolla Reunion (1998) [FLAC] {CCD-4793}\01 - Biyuya.flac...OK
[2/13] D:\RL\Gary Burton - Astor Piazzolla Reunion (1998) [FLAC] {CCD-4793}\02 - Allegro Tangabile.flac...OK
[3/13] D:\RL\Gary Burton - Astor Piazzolla Reunion (1998) [FLAC] {CCD-4793}\03 - Romance Del Diablo.flac...OK
[4/13] D:\RL\Gary Burton - Astor Piazzolla Reunion (1998) [FLAC] {CCD-4793}\04 - Caliente.flac...OK
[5/13] D:\RL\Gary Burton - Astor Piazzolla Reunion (1998) [FLAC] {CCD-4793}\05 - Tanguedia.flac...OK
[6/13] D:\RL\Gary Burton - Astor Piazzolla Reunion (1998) [FLAC] {CCD-4793}\06 - Triunfal.flac...OK
[7/13] D:\RL\Gary Burton - Astor Piazzolla Reunion (1998) [FLAC] {CCD-4793}\07 - Soledad.flac...OK
[8/13] D:\RL\Gary Burton - Astor Piazzolla Reunion (1998) [FLAC] {CCD-4793}\08 - Lunfardo.flac...OK
[9/13] D:\RL\Gary Burton - Astor Piazzolla Reunion (1998) [FLAC] {CCD-4793}\09 - Revirado.flac...OK
[10/13] D:\RL\Gary Burton - Astor Piazzolla Reunion (1998) [FLAC] {CCD-4793}\10 - La Muerte Del Angel.flac...OK
[11/13] D:\RL\Gary Burton - Astor Piazzolla Reunion (1998) [FLAC] {CCD-4793}\11 - Decarisimo.flac...OK
[12/13] D:\RL\Gary Burton - Astor Piazzolla Reunion (1998) [FLAC] {CCD-4793}\12 - Concierto Para Quinteto.flac...OK
[13/13] D:\RL\Gary Burton - Astor Piazzolla Reunion (1998) [FLAC] {CCD-4793}\13 - Mi Refugio.flac...OK
13 files, 0 errors
По всем вопросам пишите личное сообщение пользователю M0p94ok.
05:19
246
Нет комментариев. Ваш будет первым!