Поиск

(Jazz / Ethnic Jazz) Burhan Öçal & Enver Izmailov: Karadeniz - Black Sea - 1992, FLAC (tracks+.cue), lossless

(Jazz / Ethnic Jazz) Burhan Öçal & Enver Izmailov: Karadeniz - Black Sea - 1992, FLAC (tracks+.cue), lossless
Треклист:
Burhan Öçal & Enver Izmailov: Karadeniz - Black Sea
Жанр: Jazz / Ethnic Jazz
Год выпуска диска: 1992
Производитель диска: Turkey
Аудио кодек: FLAC
Тип рипа: tracks+.cue
Битрейт аудио: lossless
Продолжительность: 53'
Трэклист:
1. Akdeniz Kenarinda / At the Mediterranean Sea 7.07
2. Deniz Rahatsiz / Troubled Water 7.44
3. Soğuk Suda / In the Cold Water 3.57
4. Tim Tim 4.38
5. Hikaye / Legend 9.31
6. Pakistan Tarafi / Beyond Pakistan 4.35
7. Özbek - Tatar - Türk Düğünü / Usbekh – Tartar – Turk Wedding 6.18
8. Özümüz Bir / The Same Root 5.50
9. Ve Veda / Departure 5.40
Доп. информация:
All compositions by Enver Izmailov, arranged by Burhan Öçal
Burhan Öçal – ud, saz, darbuka and dawul
Enver Izmailov – guitar
Recorded on Nov. 20 & 21, 1991, at Lenox Studios, Brig, Switzerland, by Christian Moser
Mixed at Wellenwoog Studio, Wald, Switzerland
Mastered at Sound & Vision Studio, Zurich by Andi Rathgeb
 
скрытый текст
EAC extraction logfile from 14. March 2009, 16:42 for CD
Burhan Ocal - Enver Izmailov / Karadeniz - Black Sea
Used drive : _NEC DVD_RW ND-3551A Adapter: 0 ID: 0
Read mode : Secure with NO C2, accurate stream, disable cache
Read offset correction : 48
Overread into Lead-In and Lead-Out : No
Used output format : C:\Program Files\FLAC\bin\flac.exe (User Defined Encoder)
128 kBit/s
Additional command line options : -8 -V -T "ARTIST=%a" -T "TITLE=%t" -T "ALBUM=%g" -T "DATE=%y" -T "TRACKNUMBER=%n" -T "GENRE=%m" -T "COMMENT=EAC FLAC -8" %s
Other options :
Fill up missing offset samples with silence : Yes
Delete leading and trailing silent blocks : No
Native Win32 interface for Win NT & 2000
Track 1
Filename \\Bochka\downloads\Burhan Ocal & Enver Izmailov - Karadeniz - Black Sea (1992) [FLAC]\01 - Akdeniz Kenarinda.wav
Pre-gap length 0:00:02.00
Peak level 99.9 %
Track quality 100.0 %
Test CRC 4A815A64
Copy CRC 4A815A64
Copy OK
Track 2
Filename \\Bochka\downloads\Burhan Ocal & Enver Izmailov - Karadeniz - Black Sea (1992) [FLAC]\02 - Deniz Rahatsiz.wav
Pre-gap length 0:00:02.60
Peak level 99.9 %
Track quality 99.9 %
Test CRC 496D40C8
Copy CRC 496D40C8
Copy OK
Track 3
Filename \\Bochka\downloads\Burhan Ocal & Enver Izmailov - Karadeniz - Black Sea (1992) [FLAC]\03 - Soguk Su'da.wav
Pre-gap length 0:00:02.60
Peak level 88.0 %
Track quality 100.0 %
Test CRC 97DC6BAE
Copy CRC 97DC6BAE
Copy OK
Track 4
Filename \\Bochka\downloads\Burhan Ocal & Enver Izmailov - Karadeniz - Black Sea (1992) [FLAC]\04 - Tim Tim.wav
Pre-gap length 0:00:02.56
Peak level 99.9 %
Track quality 100.0 %
Test CRC C971626A
Copy CRC C971626A
Copy OK
Track 5
Filename \\Bochka\downloads\Burhan Ocal & Enver Izmailov - Karadeniz - Black Sea (1992) [FLAC]\05 - Hikaye.wav
Pre-gap length 0:00:02.60
Peak level 99.9 %
Track quality 100.0 %
Test CRC 36FA0E82
Copy CRC 36FA0E82
Copy OK
Track 6
Filename \\Bochka\downloads\Burhan Ocal & Enver Izmailov - Karadeniz - Black Sea (1992) [FLAC]\06 - Pakistan Tarafi.wav
Pre-gap length 0:00:02.60
Peak level 99.9 %
Track quality 99.9 %
Test CRC 3C34D616
Copy CRC 3C34D616
Copy OK
Track 7
Filename \\Bochka\downloads\Burhan Ocal & Enver Izmailov - Karadeniz - Black Sea (1992) [FLAC]\07 - Ozbek Tatar Turk Dugunu.wav
Pre-gap length 0:00:02.60
Peak level 99.9 %
Track quality 100.0 %
Test CRC EB1E52D5
Copy CRC EB1E52D5
Copy OK
Track 8
Filename \\Bochka\downloads\Burhan Ocal & Enver Izmailov - Karadeniz - Black Sea (1992) [FLAC]\08 - Ozumuz Bir.wav
Pre-gap length 0:00:02.60
Peak level 99.9 %
Track quality 99.9 %
Test CRC AB95693A
Copy CRC AB95693A
Copy OK
Track 9
Filename \\Bochka\downloads\Burhan Ocal & Enver Izmailov - Karadeniz - Black Sea (1992) [FLAC]\09 - Ve Veda.wav
Pre-gap length 0:00:02.56
Peak level 99.9 %
Track quality 100.0 %
Test CRC 74A51455
Copy CRC 74A51455
Copy OK
No errors occured
End of status report
По всем вопросам пишите личное сообщение пользователю M0p94ok.
05:20
207
Нет комментариев. Ваш будет первым!