Поиск

(Latin jazz) Randy Brecker - Randy in Brasil - 2008, FLAC (tracks), lossless

(Latin jazz) Randy Brecker - Randy in Brasil - 2008, FLAC (tracks), lossless
Треклист:
Randy Brecker - Randy in Brasil
Жанр: Latin jazz
Год выпуска диска: 2008
Производитель диска: Бразилия-США
Аудио кодек: FLAC
Тип рипа: tracks
Битрейт аудио: lossless
Продолжительность: 58
Трэклист:
01 Pedro Brasil
02 Ile Aye
03 Guaruja
04 Me Leve
05 Malasia
06 Sambop
07 Oriente
08 Maca
09 Olhos Puxados
10 Rebento
11 Fazendo Hora
12 Aiaiai
Доп. информация: Грэмми 2009 в категории Best Contemporary Jazz Album
Отчёт XLD (XLD):
 
скрытый текст
X Lossless Decoder version 20090314 (104.1)
XLD extraction logfile from 2009-03-14 19:10:12 +0100
Randy Brecker / Randy In Brasil
Used drive : MATSHITA DVD-R UJ-867 (revision HB01)
Use cdparanoia mode : YES (CDParanoia III 9.8 engine)
Disable audio cache : OK for the drive with cache less than 370KB
Make use of C2 pointers : NO
Read offset correction : 102
Max retry count : 100
TOC of the extracted CD
Track | Start | Length | Start sector | End sector
---------------------------------------------------------
1 | 00:00:00 | 04:30:67 | 0 | 20316
2 | 04:30:67 | 04:19:71 | 20317 | 39812
3 | 08:50:63 | 06:04:25 | 39813 | 67137
4 | 14:55:13 | 04:23:12 | 67138 | 86874
5 | 19:18:25 | 05:31:02 | 86875 | 111701
6 | 24:49:27 | 05:12:25 | 111702 | 135126
7 | 30:01:52 | 03:31:37 | 135127 | 150988
8 | 33:33:14 | 03:50:02 | 150989 | 168240
9 | 37:23:16 | 04:27:00 | 168241 | 188265
10 | 41:50:16 | 05:15:24 | 188266 | 211914
11 | 47:05:40 | 04:21:58 | 211915 | 231547
12 | 51:27:23 | 05:03:16 | 231548 | 254288
Track 01
Filename : /Users/vladimirrybkin/Desktop/01 Randy Brecker - Pedro Brasil.flac
CRC32 hash (test run) : C22968D1
CRC32 hash : C22968D1
CRC32 hash (skip zero) : 2CBB4903
AccurateRip signature : 25BFCB5F
->Track not present in AccurateRip database.
Statistics
Read error : 0
Skipped (treated as error) : 0
Edge jitter error (maybe fixed) : 0
Atom jitter error (maybe fixed) : 0
Drift error (maybe fixed) : 0
Dropped bytes error (maybe fixed) : 0
Duplicated bytes error (maybe fixed) : 0
Inconsistency in error sectors : 0
Track 02
Filename : /Users/vladimirrybkin/Desktop/02 Randy Brecker - Ile Aye.flac
CRC32 hash (test run) : D5C432D7
CRC32 hash : D5C432D7
CRC32 hash (skip zero) : 20BEFA69
AccurateRip signature : CBEFA5F2
->Track not present in AccurateRip database.
Statistics
Read error : 0
Skipped (treated as error) : 0
Edge jitter error (maybe fixed) : 0
Atom jitter error (maybe fixed) : 0
Drift error (maybe fixed) : 0
Dropped bytes error (maybe fixed) : 0
Duplicated bytes error (maybe fixed) : 0
Inconsistency in error sectors : 0
Track 03
Filename : /Users/vladimirrybkin/Desktop/03 Randy Brecker - Guaruja.flac
CRC32 hash (test run) : 2E14B754
CRC32 hash : 2E14B754
CRC32 hash (skip zero) : 85891114
AccurateRip signature : 79C2F1C3
->Track not present in AccurateRip database.
Statistics
Read error : 0
Skipped (treated as error) : 0
Edge jitter error (maybe fixed) : 0
Atom jitter error (maybe fixed) : 0
Drift error (maybe fixed) : 0
Dropped bytes error (maybe fixed) : 0
Duplicated bytes error (maybe fixed) : 0
Inconsistency in error sectors : 0
Track 04
Filename : /Users/vladimirrybkin/Desktop/04 Randy Brecker - Me Leve.flac
CRC32 hash (test run) : FC110E9A
CRC32 hash : FC110E9A
CRC32 hash (skip zero) : 107F9B04
AccurateRip signature : 7FF1E080
->Track not present in AccurateRip database.
Statistics
Read error : 0
Skipped (treated as error) : 0
Edge jitter error (maybe fixed) : 0
Atom jitter error (maybe fixed) : 0
Drift error (maybe fixed) : 0
Dropped bytes error (maybe fixed) : 0
Duplicated bytes error (maybe fixed) : 0
Inconsistency in error sectors : 0
Track 05
Filename : /Users/vladimirrybkin/Desktop/05 Randy Brecker - Malasia.flac
CRC32 hash (test run) : D2C4C485
CRC32 hash : D2C4C485
CRC32 hash (skip zero) : 18D8BEEB
AccurateRip signature : 111A79BB
->Track not present in AccurateRip database.
Statistics
Read error : 0
Skipped (treated as error) : 0
Edge jitter error (maybe fixed) : 0
Atom jitter error (maybe fixed) : 0
Drift error (maybe fixed) : 0
Dropped bytes error (maybe fixed) : 0
Duplicated bytes error (maybe fixed) : 0
Inconsistency in error sectors : 0
Track 06
Filename : /Users/vladimirrybkin/Desktop/06 Randy Brecker - Sambop.flac
CRC32 hash (test run) : BF93E0B4
CRC32 hash : BF93E0B4
CRC32 hash (skip zero) : D5B612F3
AccurateRip signature : 7A1FE88C
->Track not present in AccurateRip database.
Statistics
Read error : 0
Skipped (treated as error) : 0
Edge jitter error (maybe fixed) : 0
Atom jitter error (maybe fixed) : 0
Drift error (maybe fixed) : 0
Dropped bytes error (maybe fixed) : 0
Duplicated bytes error (maybe fixed) : 0
Inconsistency in error sectors : 0
Track 07
Filename : /Users/vladimirrybkin/Desktop/07 Randy Brecker - Oriente.flac
CRC32 hash (test run) : 6840F750
CRC32 hash : 6840F750
CRC32 hash (skip zero) : 346993EF
AccurateRip signature : 66FDADD4
->Track not present in AccurateRip database.
Statistics
Read error : 0
Skipped (treated as error) : 0
Edge jitter error (maybe fixed) : 0
Atom jitter error (maybe fixed) : 0
Drift error (maybe fixed) : 0
Dropped bytes error (maybe fixed) : 0
Duplicated bytes error (maybe fixed) : 0
Inconsistency in error sectors : 0
Track 08
Filename : /Users/vladimirrybkin/Desktop/08 Randy Brecker - Maca.flac
CRC32 hash (test run) : 95BFD7FE
CRC32 hash : 95BFD7FE
CRC32 hash (skip zero) : E022FD01
AccurateRip signature : 1E689BCC
->Track not present in AccurateRip database.
Statistics
Read error : 0
Skipped (treated as error) : 0
Edge jitter error (maybe fixed) : 0
Atom jitter error (maybe fixed) : 0
Drift error (maybe fixed) : 0
Dropped bytes error (maybe fixed) : 0
Duplicated bytes error (maybe fixed) : 0
Inconsistency in error sectors : 0
Track 09
Filename : /Users/vladimirrybkin/Desktop/09 Randy Brecker - Olhos Puxados.flac
CRC32 hash (test run) : 9EE56636
CRC32 hash : 9EE56636
CRC32 hash (skip zero) : 39E25708
AccurateRip signature : 305126DF
->Track not present in AccurateRip database.
Statistics
Read error : 0
Skipped (treated as error) : 0
Edge jitter error (maybe fixed) : 0
Atom jitter error (maybe fixed) : 0
Drift error (maybe fixed) : 0
Dropped bytes error (maybe fixed) : 0
Duplicated bytes error (maybe fixed) : 0
Inconsistency in error sectors : 0
Track 10
Filename : /Users/vladimirrybkin/Desktop/10 Randy Brecker - Rebento.flac
CRC32 hash (test run) : 5A6496DA
CRC32 hash : 5A6496DA
CRC32 hash (skip zero) : CAAC0518
AccurateRip signature : CA8A9415
->Track not present in AccurateRip database.
Statistics
Read error : 0
Skipped (treated as error) : 0
Edge jitter error (maybe fixed) : 0
Atom jitter error (maybe fixed) : 0
Drift error (maybe fixed) : 0
Dropped bytes error (maybe fixed) : 0
Duplicated bytes error (maybe fixed) : 0
Inconsistency in error sectors : 0
Track 11
Filename : /Users/vladimirrybkin/Desktop/11 Randy Brecker - Fazendo Hora.flac
CRC32 hash (test run) : 33492E05
CRC32 hash : 33492E05
CRC32 hash (skip zero) : E1A0E25F
AccurateRip signature : 4BD53E33
->Track not present in AccurateRip database.
Statistics
Read error : 0
Skipped (treated as error) : 0
Edge jitter error (maybe fixed) : 0
Atom jitter error (maybe fixed) : 0
Drift error (maybe fixed) : 0
Dropped bytes error (maybe fixed) : 0
Duplicated bytes error (maybe fixed) : 0
Inconsistency in error sectors : 0
Track 12
Filename : /Users/vladimirrybkin/Desktop/12 Randy Brecker - Aiaiai.flac
CRC32 hash (test run) : D99A6477
CRC32 hash : D99A6477
CRC32 hash (skip zero) : 8B32C86B
AccurateRip signature : F150D9C5
->Track not present in AccurateRip database.
Statistics
Read error : 0
Skipped (treated as error) : 0
Edge jitter error (maybe fixed) : 0
Atom jitter error (maybe fixed) : 0
Drift error (maybe fixed) : 0
Dropped bytes error (maybe fixed) : 0
Duplicated bytes error (maybe fixed) : 0
Inconsistency in error sectors : 0
No errors occurred
End of status report
05:21
422
Нет комментариев. Ваш будет первым!