Поиск

(Southern Soul, Deep Soul) Solomon Burke - The Platinum Collection - 2007, APE (image+.cue), lossless

Треклист:
Solomon Burke - The Platinum Collection
Жанр: Southern Soul, Deep Soul
Год выпуска диска: 2007
Производитель диска: UK - Warner Music UK/Rhino
Аудио кодек: APE
Тип рипа: image+.cue
Битрейт аудио: lossless
Продолжительность: 62:32
Трэклист:
1 Everybody Needs Somebody to Love (Burke, Russell, Wexler) 2:46
2 Got to Get You off My Mind (Burke) 1:58
3 If You Need Me (Bateman, Pickett, Sanders) 2:32
4 I Wish I Knew (How It Would Feel to Be Free) (Dallas, Taylor) 2:50
5 Tonight's the Night (Burke, Covay) 2:46
6 Down in the Valley (Berns, Burke) 2:25
7 Just out of Reach (Of My Two Open Arms) (Stewart) 2:43
8 Stupidity (Burke) 1:55
9 Cry to Me (Russell) 2:32
10 Home in Your Heart (Blackwell, Winfield) 2:05
11 Looking for My Baby (Burke) 2:23
12 I'm Hanging Up My Heart for You (Berry, Covay) 3:04
13 You're Good for Me (Covay, Ott) 2:50
14 Baby, Come on Home (Russell) 3:19
15 The Price (Burke Sr., Burke Jr., Moore) 2:46
16 Take Me (Just as I Am) (Oldham, Penn) 3:02
17 Keep a Light in the Window (Alexander) 3:25
18 Someone Is Watching (Burke, Floyd, Isbell) 2:52
19 Get out of My Life Woman (Toussaint) 3:20
20 Maggie's Farm (Dylan) 2:17
21 Since I Met You Baby (Hunter) 3:45
22 What'd I Say (Charles) 4:48
Recorded 1960 - 1968
 
Review
While gospel was a key influence for many of the great voices of '60s soul, few artists brought the spiritual and the secular together with as much skill and emotional gravity as Solomon Burke (no great surprise, given that he became a preacher later in life). However, Burke's influences went beyond gospel. He had a real gift for country influenced material, and his "Just out of Reach (Of My Two Empty Arms)" scored significant airplay on Southern C&W radio; there was plenty of raw blues in his recipe; and he had a potent sense of drama (the man's knack for a recitation was unequaled) as well as a subtle but keen wit (who else would record a dance tune called "Stupidity" and make it work?). While Burke made worthwhile records for a number of labels (and continues to do so at this writing), his strongest body of work remains his Atlantic Records sides, and Burke's installment in Warner Platinum's The Platinum Collection series features 22 songs which cover his biggest hits and most memorable album cuts. Rhino's two-disc Home in Your Heart: The Best of Solomon Burke remains the definitive overview of this phase of Burke's career, and their single-disc The Very Best of Solomon Burke includes the remarkable "Soul Meeting" (the A-side of the only single from the Soul Clan, a short-lived R&B supergroup featuring Burke, Ben E. King, Joe Tex, Don Covay and Arthur Conley), and either of those sets is slightly preferable to this one. But any CD that features Solomon Burke singing "Cry to Me," "The Price," "Everybody Needs Somebody to Love," "Got to Get You off My Mind" and "Tonight's the Night" is worth owning, and that only scratches the surface of the great music on The Platinum Collection, and it's a fine value for anyone with a taste for Southern soul. by Mark Deming AMG
 
EAC extraction logfile
Exact Audio Copy V0.99 prebeta 5 from 4. May 2009
EAC extraction logfile from 23. March 2010, 16:20
Solomon Burke / The Platinum Collection
Used drive : Optiarc DVD RW AD-7200S Adapter: 3 ID: 0
Read mode : Secure
Utilize accurate stream : Yes
Defeat audio cache : Yes
Make use of C2 pointers : No
Read offset correction : 48
Overread into Lead-In and Lead-Out : No
Fill up missing offset samples with silence : Yes
Delete leading and trailing silent blocks : No
Null samples used in CRC calculations : Yes
Used interface : Installed external ASPI interface
Used output format : Internal WAV Routines
Sample format : 44.100 Hz; 16 Bit; Stereo
TOC of the extracted CD
Track | Start | Length | Start sector | End sector
---------------------------------------------------------
1 | 0:00.00 | 2:46.00 | 0 | 12449
2 | 2:46.00 | 1:58.03 | 12450 | 21302
3 | 4:44.03 | 2:32.38 | 21303 | 32740
4 | 7:16.41 | 2:50.61 | 32741 | 45551
5 | 10:07.27 | 2:46.62 | 45552 | 58063
6 | 12:54.14 | 2:25.51 | 58064 | 68989
7 | 15:19.65 | 2:43.01 | 68990 | 81215
8 | 18:02.66 | 1:55.40 | 81216 | 89880
9 | 19:58.31 | 2:32.02 | 89881 | 101282
10 | 22:30.33 | 2:05.00 | 101283 | 110657
11 | 24:35.33 | 2:23.13 | 110658 | 121395
12 | 26:58.46 | 3:04.64 | 121396 | 135259
13 | 30:03.35 | 2:50.02 | 135260 | 148011
14 | 32:53.37 | 3:19.16 | 148012 | 162952
15 | 36:12.53 | 2:46.10 | 162953 | 175412
16 | 38:58.63 | 3:02.59 | 175413 | 189121
17 | 42:01.47 | 3:25.38 | 189122 | 204534
18 | 45:27.10 | 2:52.50 | 204535 | 217484
19 | 48:19.60 | 3:20.36 | 217485 | 232520
20 | 51:40.21 | 2:17.02 | 232521 | 242797
21 | 53:57.23 | 3:45.39 | 242798 | 259711
22 | 57:42.62 | 4:48.09 | 259712 | 281320
Range status and errors
Selected range
Filename C:\Documents and Settings\1\Мои документы\EAC\Solomon Burke - The Platinum Collection (2007)\Solomon Burke - The Platinum Collection.wav
Peak level 100.0 %
Range quality 99.9 %
Copy CRC D93102AF
Copy OK
No errors occurred
AccurateRip summary
Track 1 accurately ripped (confidence 6) [EADDA441]
Track 2 accurately ripped (confidence 6) [84440229]
Track 3 accurately ripped (confidence 6) [4B1A8DC6]
Track 4 accurately ripped (confidence 6) [1E3F757C]
Track 5 accurately ripped (confidence 6) [845E1874]
Track 6 accurately ripped (confidence 6) [3C057173]
Track 7 accurately ripped (confidence 6) [1830F061]
Track 8 accurately ripped (confidence 6) [139AB012]
Track 9 accurately ripped (confidence 6) [169C5ABD]
Track 10 accurately ripped (confidence 6) [231A84F4]
Track 11 accurately ripped (confidence 6) [68AE297B]
Track 12 accurately ripped (confidence 6) [33D1C057]
Track 13 accurately ripped (confidence 6) [A523163A]
Track 14 accurately ripped (confidence 6) [CF93F6EF]
Track 15 accurately ripped (confidence 6) [9BA65B6E]
Track 16 accurately ripped (confidence 6) [74209C3A]
Track 17 accurately ripped (confidence 6) [1A441B20]
Track 18 accurately ripped (confidence 6) [3C719A63]
Track 19 accurately ripped (confidence 6) [853448EF]
Track 20 accurately ripped (confidence 6) [8A62521E]
Track 21 accurately ripped (confidence 6) [B46E785C]
Track 22 accurately ripped (confidence 6) [4A64709E]
All tracks accurately ripped
End of status report
Приватный:
Нет (DHT включён)
Размер:
349.00 Мб (365,958,023 байт) » файлов: 11
Участники:
0 раздают, 0 качают (0 участников всего)
Внешние участники:
2 раздают, 1 качают (3 участников всего) [ Обновить ]
03:41
21
Нет комментариев. Ваш будет первым!