Поиск

(R&B, soul, gospel, pop) Sam Cooke - The Legend Of Sam Cooke - 1993, FLAC (tracks+cue), lossless

Треклист:
(Soul) Sam Cooke - The Legend Of Sam Cooke (1993) [FLAC (tracks+cue), lossless]
Sam Cooke - The Legend Of Sam Cooke
Исполнитель: Sam Cooke
Альбом: The Legend Of Sam Cooke
Страна: Chicago, Illinois, US
Дата выпуска: 1993
Жанр: R&B, soul, gospel, pop
Формат: FLAC (tracks+cue)
Битрейт: lossless
Продолжительность: 01:33:42
Источник: emule
 
Треклист
01. You Send Me [00:02:46]
02. What A Wonderful World [00:05:33]
03. Steal Away [00:04:14]
04. Only Sixteen [00:04:22]
05. Love You Most Of All [00:03:56]
06. Win Your Love For Me [00:04:40]
07. Little Things You Do [00:05:27]
08. Stealing Kisses [00:04:34]
09. Summertime Part. 1 [00:04:23]
10. Summertime Part. 2 [00:04:33]
11. Tammy [00:04:41]
12. No One Can Ever Take Your Place [00:07:05]
13. Let's Go Steady Again [00:04:41]
14. Desire Me [00:05:02]
15. I Thank God [00:04:46]
16. Ol' Man River [00:02:33]
17. You Were Made For Me [00:02:55]
18. All Of My Life [00:02:24]
19. There, I've Said It Again [00:01:59]
20. Darling I Need You [00:02:29]
21. I'll Come Running Back To You [00:02:13]
22. I Don't Want To Cry [00:02:50]
23. Lovable [00:02:23]
24. Forever [00:02:58]
Доп. информация: http://en.wikipedia.org/wiki/Sam_Cooke
 
Отчёт EAC
Exact Audio Copy V0.99 prebeta 5 from 4. May 2009
EAC extraction logfile from 30. December 2009, 22:15
Sam Cooke / The Legend Of Sam Cooke
Used drive : HL-DT-STDVD-RAM GH22NP20 Adapter: 1 ID: 1
Read mode : Secure
Utilize accurate stream : Yes
Defeat audio cache : Yes
Make use of C2 pointers : No
Read offset correction : 102
Overread into Lead-In and Lead-Out : No
Fill up missing offset samples with silence : Yes
Delete leading and trailing silent blocks : No
Null samples used in CRC calculations : Yes
Used interface : Installed external ASPI interface
Gap handling : Appended to previous track
Used output format : User Defined Encoder
Selected bitrate : 1024 kBit/s
Quality : High
Add ID3 tag : No
Command line compressor : C:\Program Files\Exact Audio Copy\FLAC\FLAC.EXE
Additional command line options : -3 -V -T "ARTIST=%a" -T "TITLE=%t" -T "ALBUM=%g" -T "DATE=%y" -T "TRACKNUMBER=%n" -T "GENRE=%m" -T "COMMENT=%e" %s -o %d
Use compression offset : 48
TOC of the extracted CD
Track | Start | Length | Start sector | End sector
---------------------------------------------------------
1 | 0:00.00 | 2:47.05 | 0 | 12529
2 | 2:47.05 | 2:07.40 | 12530 | 22094
3 | 4:54.45 | 2:11.60 | 22095 | 31979
4 | 7:06.30 | 1:58.33 | 31980 | 40862
5 | 9:04.63 | 2:20.25 | 40863 | 51387
6 | 11:25.13 | 2:44.12 | 51388 | 63699
7 | 14:09.25 | 2:17.53 | 63700 | 74027
8 | 16:27.03 | 2:12.22 | 74028 | 83949
9 | 18:39.25 | 2:16.65 | 83950 | 94214
10 | 20:56.15 | 2:21.00 | 94215 | 104789
11 | 23:17.15 | 3:32.53 | 104790 | 120742
12 | 26:49.68 | 2:21.52 | 120743 | 131369
13 | 29:11.45 | 2:31.48 | 131370 | 142742
14 | 31:43.18 | 2:23.30 | 142743 | 153497
15 | 34:06.48 | 2:59.35 | 153498 | 166957
16 | 37:06.08 | 2:33.25 | 166958 | 178457
17 | 39:39.33 | 2:55.45 | 178458 | 191627
18 | 42:35.03 | 2:24.57 | 191628 | 202484
19 | 44:59.60 | 1:59.45 | 202485 | 211454
20 | 46:59.30 | 2:29.20 | 211455 | 222649
21 | 49:28.50 | 2:13.58 | 222650 | 232682
22 | 51:42.33 | 2:50.57 | 232683 | 245489
23 | 54:33.15 | 2:23.58 | 245490 | 256272
24 | 56:56.73 | 2:58.30 | 256273 | 269652
Track 1
Filename C:\New Folder\01. You Send Me.wav
Pre-gap length 0:00:02.00
Peak level 78.7 %
Track quality 100.0 %
Copy CRC 95331EBC
Accurately ripped (confidence 1) [666A26E7]
Copy OK
Track 2
Filename C:\New Folder\02. What A Wonderful World.wav
Pre-gap length 0:00:00.36
Peak level 83.8 %
Track quality 100.0 %
Copy CRC B64C4EE4
Accurately ripped (confidence 1) [0A4FA163]
Copy OK
Track 3
Filename C:\New Folder\03. Steal Away.wav
Pre-gap length 0:00:00.18
Peak level 81.4 %
Track quality 100.0 %
Copy CRC AB7F50B9
Accurately ripped (confidence 1) [F55989F9]
Copy OK
Track 4
Filename C:\New Folder\04. Only Sixteen.wav
Pre-gap length 0:00:00.62
Peak level 77.5 %
Track quality 100.0 %
Copy CRC 6D8B198B
Accurately ripped (confidence 1) [BC1C6F2A]
Copy OK
Track 5
Filename C:\New Folder\05. Love You Most Of All.wav
Pre-gap length 0:00:00.56
Peak level 80.3 %
Track quality 100.0 %
Copy CRC 2076B707
Accurately ripped (confidence 1) [490A3DA1]
Copy OK
Track 6
Filename C:\New Folder\06. Win Your Love For Me.wav
Pre-gap length 0:00:00.48
Peak level 80.2 %
Track quality 100.0 %
Copy CRC 9A920AF0
Accurately ripped (confidence 1) [13DADC0F]
Copy OK
Track 7
Filename C:\New Folder\07. Little Things You Do.wav
Pre-gap length 0:00:00.31
Peak level 73.4 %
Track quality 100.0 %
Copy CRC CC61751A
Accurately ripped (confidence 1) [8F833DED]
Copy OK
Track 8
Filename C:\New Folder\08. Stealing Kisses.wav
Pre-gap length 0:00:00.39
Peak level 91.9 %
Track quality 100.0 %
Copy CRC 368002E4
Accurately ripped (confidence 1) [BB54AFA7]
Copy OK
Track 9
Filename C:\New Folder\09. Summertime Part. 1.wav
Pre-gap length 0:00:00.56
Peak level 83.6 %
Track quality 100.0 %
Copy CRC 929518A0
Accurately ripped (confidence 1) [1AA6372D]
Copy OK
Track 10
Filename C:\New Folder\10. Summertime Part. 2.wav
Pre-gap length 0:00:00.29
Peak level 74.1 %
Track quality 100.0 %
Copy CRC 80DEB1F8
Accurately ripped (confidence 1) [392DA1EF]
Copy OK
Track 11
Filename C:\New Folder\11. Tammy.wav
Pre-gap length 0:00:00.48
Peak level 65.8 %
Track quality 100.0 %
Copy CRC 6F8EEBAC
Accurately ripped (confidence 1) [E5CE9FBE]
Copy OK
Track 12
Filename C:\New Folder\12. No One Can Ever Take Your Place.wav
Pre-gap length 0:00:00.33
Peak level 83.5 %
Track quality 100.0 %
Copy CRC EB4B45E1
Accurately ripped (confidence 1) [CA5BB330]
Copy OK
Track 13
Filename C:\New Folder\13. Let's Go Steady Again.wav
Pre-gap length 0:00:01.55
Peak level 64.3 %
Track quality 100.0 %
Copy CRC 4327BFC1
Accurately ripped (confidence 1) [755272E9]
Copy OK
Track 14
Filename C:\New Folder\14. Desire Me.wav
Pre-gap length 0:00:00.55
Peak level 67.2 %
Track quality 100.0 %
Copy CRC FC4A4F63
Accurately ripped (confidence 1) [1DCD2FFF]
Copy OK
Track 15
Filename C:\New Folder\15. I Thank God.wav
Pre-gap length 0:00:00.56
Peak level 66.3 %
Track quality 100.0 %
Copy CRC 8183A106
Accurately ripped (confidence 1) [E5BE7192]
Copy OK
Track 16
Filename C:\New Folder\16. Ol' Man River.wav
Peak level 68.2 %
Track quality 100.0 %
Copy CRC A503079C
Accurately ripped (confidence 1) [6A2A7084]
Copy OK
Track 17
Filename C:\New Folder\17. You Were Made For Me.wav
Peak level 77.5 %
Track quality 100.0 %
Copy CRC D6056CC2
Accurately ripped (confidence 1) [26BE116A]
Copy OK
Track 18
Filename C:\New Folder\18. All Of My Life.wav
Peak level 68.0 %
Track quality 99.9 %
Copy CRC 845BE9F0
Accurately ripped (confidence 1) [5893BD88]
Copy OK
Track 19
Filename C:\New Folder\19. There, I've Said It Again.wav
Peak level 65.7 %
Track quality 100.0 %
Copy CRC 77311B49
Accurately ripped (confidence 1) [5A9AC721]
Copy OK
Track 20
Filename C:\New Folder\20. Darling I Need You.wav
Peak level 78.8 %
Track quality 100.0 %
Copy CRC 5B00DCB0
Accurately ripped (confidence 1) [5BE7B4CF]
Copy OK
Track 21
Filename C:\New Folder\21. I'll Come Running Back To You.wav
Peak level 68.6 %
Track quality 100.0 %
Copy CRC 4B386C4F
Accurately ripped (confidence 1) [86C83A08]
Copy OK
Track 22
Filename C:\New Folder\22. I Don't Want To Cry.wav
Peak level 73.2 %
Track quality 100.0 %
Copy CRC BB93E9FF
Accurately ripped (confidence 1) [907E76F0]
Copy OK
Track 23
Filename C:\New Folder\23. Lovable.wav
Peak level 75.6 %
Track quality 99.9 %
Copy CRC 566750CB
Accurately ripped (confidence 1) [399C6AE1]
Copy OK
Track 24
Filename C:\New Folder\24. Forever.wav
Peak level 76.6 %
Track quality 100.0 %
Copy CRC 62F04A29
Accurately ripped (confidence 1) [51F2534D]
Copy OK
All tracks accurately ripped
No errors occurred
End of status report
 
CUE
REM GENRE Soul
REM DATE 1993
REM DISCID 600E0B18
REM COMMENT "ExactAudioCopy v0.99pb5"
PERFORMER "Sam Cooke"
TITLE "The Legend Of Sam Cooke"
FILE "01. You Send Me.wav" WAVE
TRACK 01 AUDIO
TITLE "You Send Me"
PERFORMER "Sam Cooke"
INDEX 01 00:00:00
TRACK 02 AUDIO
TITLE "What A Wonderful World"
PERFORMER "Sam Cooke"
INDEX 00 02:46:44
FILE "02. What A Wonderful World.wav" WAVE
INDEX 01 00:00:00
TRACK 03 AUDIO
TITLE "Steal Away"
PERFORMER "Sam Cooke"
INDEX 00 02:07:22
FILE "03. Steal Away.wav" WAVE
INDEX 01 00:00:00
TRACK 04 AUDIO
TITLE "Only Sixteen"
PERFORMER "Sam Cooke"
INDEX 00 02:10:73
FILE "04. Only Sixteen.wav" WAVE
INDEX 01 00:00:00
TRACK 05 AUDIO
TITLE "Love You Most Of All"
PERFORMER "Sam Cooke"
INDEX 00 01:57:52
FILE "05. Love You Most Of All.wav" WAVE
INDEX 01 00:00:00
TRACK 06 AUDIO
TITLE "Win Your Love For Me"
PERFORMER "Sam Cooke"
INDEX 00 02:19:52
FILE "06. Win Your Love For Me.wav" WAVE
INDEX 01 00:00:00
TRACK 07 AUDIO
TITLE "Little Things You Do"
PERFORMER "Sam Cooke"
INDEX 00 02:43:56
FILE "07. Little Things You Do.wav" WAVE
INDEX 01 00:00:00
TRACK 08 AUDIO
TITLE "Stealing Kisses"
PERFORMER "Sam Cooke"
INDEX 00 02:17:14
FILE "08. Stealing Kisses.wav" WAVE
INDEX 01 00:00:00
TRACK 09 AUDIO
TITLE "Summertime Part. 1"
PERFORMER "Sam Cooke"
INDEX 00 02:11:41
FILE "09. Summertime Part. 1.wav" WAVE
INDEX 01 00:00:00
TRACK 10 AUDIO
TITLE "Summertime Part. 2"
PERFORMER "Sam Cooke"
INDEX 00 02:16:36
FILE "10. Summertime Part. 2.wav" WAVE
INDEX 01 00:00:00
TRACK 11 AUDIO
TITLE "Tammy"
PERFORMER "Sam Cooke"
INDEX 00 02:20:27
FILE "11. Tammy.wav" WAVE
INDEX 01 00:00:00
TRACK 12 AUDIO
TITLE "No One Can Ever Take Your Place"
PERFORMER "Sam Cooke"
INDEX 00 03:32:20
FILE "12. No One Can Ever Take Your Place.wav" WAVE
INDEX 01 00:00:00
TRACK 13 AUDIO
TITLE "Let's Go Steady Again"
PERFORMER "Sam Cooke"
INDEX 00 02:19:72
FILE "13. Let's Go Steady Again.wav" WAVE
INDEX 01 00:00:00
TRACK 14 AUDIO
TITLE "Desire Me"
PERFORMER "Sam Cooke"
INDEX 00 02:30:68
FILE "14. Desire Me.wav" WAVE
INDEX 01 00:00:00
TRACK 15 AUDIO
TITLE "I Thank God"
PERFORMER "Sam Cooke"
INDEX 00 02:22:49
FILE "15. I Thank God.wav" WAVE
INDEX 01 00:00:00
FILE "16. Ol' Man River.wav" WAVE
TRACK 16 AUDIO
TITLE "Ol' Man River"
PERFORMER "Sam Cooke"
INDEX 01 00:00:00
FILE "17. You Were Made For Me.wav" WAVE
TRACK 17 AUDIO
TITLE "You Were Made For Me"
PERFORMER "Sam Cooke"
INDEX 01 00:00:00
FILE "18. All Of My Life.wav" WAVE
TRACK 18 AUDIO
TITLE "All Of My Life"
PERFORMER "Sam Cooke"
INDEX 01 00:00:00
FILE "19. There, I've Said It Again.wav" WAVE
TRACK 19 AUDIO
TITLE "There, I've Said It Again"
PERFORMER "Sam Cooke"
INDEX 01 00:00:00
FILE "20. Darling I Need You.wav" WAVE
TRACK 20 AUDIO
TITLE "Darling I Need You"
PERFORMER "Sam Cooke"
INDEX 01 00:00:00
FILE "21. I'll Come Running Back To You.wav" WAVE
TRACK 21 AUDIO
TITLE "I'll Come Running Back To You"
PERFORMER "Sam Cooke"
INDEX 01 00:00:00
FILE "22. I Don't Want To Cry.wav" WAVE
TRACK 22 AUDIO
TITLE "I Don't Want To Cry"
PERFORMER "Sam Cooke"
INDEX 01 00:00:00
FILE "23. Lovable.wav" WAVE
TRACK 23 AUDIO
TITLE "Lovable"
PERFORMER "Sam Cooke"
INDEX 01 00:00:00
FILE "24. Forever.wav" WAVE
TRACK 24 AUDIO
TITLE "Forever"
PERFORMER "Sam Cooke"
INDEX 01 00:00:00
 
Отчёт audiochecker
AUDIOCHECKER v2.0 beta (build 457) - by Dester - opdester@freemail.hu
~~~~~~~~~~~~~~~~~~~~~~~~~~~~~~~~~~
-=== НЕ РЕДАКТИРУЙТЕ ЭТОТ ФАЙЛ! ===-
Путь: ...\Sam Cooke - The Legend Of Sam Cooke
01 -=- 01. You Send Me.flac -=- CDDA (100%)
02 -=- 02. What A Wonderful World.flac -=- CDDA (100%)
03 -=- 03. Steal Away.flac -=- CDDA (100%)
04 -=- 04. Only Sixteen.flac -=- CDDA (100%)
05 -=- 05. Love You Most Of All.flac -=- CDDA (100%)
06 -=- 06. Win Your Love For Me.flac -=- CDDA (100%)
07 -=- 07. Little Things You Do.flac -=- CDDA (100%)
08 -=- 08. Stealing Kisses.flac -=- CDDA (100%)
09 -=- 09. Summertime Part. 1.flac -=- CDDA (100%)
10 -=- 10. Summertime Part. 2.flac -=- CDDA (100%)
11 -=- 11. Tammy.flac -=- CDDA (100%)
12 -=- 12. No One Can Ever Take Your Place.flac -=- CDDA (99%)
13 -=- 13. Let's Go Steady Again.flac -=- CDDA (99%)
14 -=- 14. Desire Me.flac -=- CDDA (100%)
15 -=- 15. I Thank God.flac -=- CDDA (99%)
16 -=- 16. Ol' Man River.flac -=- CDDA (100%)
17 -=- 17. You Were Made For Me.flac -=- CDDA (100%)
18 -=- 18. All Of My Life.flac -=- CDDA (100%)
19 -=- 19. There, I've Said It Again.flac -=- CDDA (100%)
20 -=- 20. Darling I Need You.flac -=- CDDA (100%)
21 -=- 21. I'll Come Running Back To You.flac -=- CDDA (100%)
22 -=- 22. I Don't Want To Cry.flac -=- CDDA (100%)
23 -=- 23. Lovable.flac -=- CDDA (100%)
24 -=- 24. Forever.flac -=- CDDA (100%)
Сводка 99,88% CDDA
180252180
Приватный:
Нет (DHT включён)
Размер:
303.12 Мб (317,848,283 байт) » файлов: 29
Участники:
0 раздают, 0 качают (0 участников всего)
Внешние участники:
2 раздают, 1 качают (3 участников всего) [ Обновить ]
Нет сидеров - пишите личное сообщение M0p94ok. Не нравятся торренты? Участники группы Pro-jazz Club могут заказать прямую ссылку на скачивание из облака.
No seeders - write a personal message to M0p94ok. Don't like torrents? Members of Pro-jazz Club group can order a direct download link from the cloud.
03:40
23
Нет комментариев. Ваш будет первым!