Поиск

(Soul/Motown) Gladys Knight And The Pips "Greatest Hits" CD - 1990, FLAC (tracks+.cue), lossless

(Soul/Motown) Gladys Knight And The Pips "Greatest Hits" CD - 1990, FLAC (tracks+.cue), lossless
Треклист:
Gladys Knight And The Pips "Greatest Hits" CD
Жанр: Soul/Motown
Год выпуска диска: 1990
Производитель диска: Curb Records, D2-77321 USA
Аудио кодек: FLAC
Тип рипа: tracks+.cue
Битрейт аудио: lossless
Трэклист:
1. I Heard It Through the Grapevine
2. If I Were Your Woman
3. Neither One of Us
4. Friendship Train
5. Midnight Train to Georgia
6. Best Thing That Ever Happened to Me
7. I've Got to Use My Imagination
8. On and On
9. Letter Full of Tears
10. Every Beat of My Heart
Доп. информация: Собственный Rip с оригинального CD из моей коллекции
FLAC:
 
скрытый текст
Exact Audio Copy V0.99 prebeta 5 from 4. May 2009
EAC extraction logfile from 21. March 2010, 14:30
Gladys Knight And The Pips / Greatest Hits
Used drive : MATSHITADVD-RAM UJ-841S Adapter: 0 ID: 0
Read mode : Secure
Utilize accurate stream : Yes
Defeat audio cache : Yes
Make use of C2 pointers : No
Read offset correction : 102
Overread into Lead-In and Lead-Out : No
Fill up missing offset samples with silence : Yes
Delete leading and trailing silent blocks : No
Null samples used in CRC calculations : Yes
Used interface : Installed external ASPI interface
Gap handling : Appended to previous track
Used output format : User Defined Encoder
Selected bitrate : 128 kBit/s
Quality : High
Add ID3 tag : No
Command line compressor : C:\Program Files\Exact Audio Copy\Flac\flac.exe
Additional command line options : -8 -V -T "ARTIST=%a" -T "TITLE=%t" -T "ALBUM=%g" -T "DATE=%y" -T "TRACKNUMBER=%n" -T "GENRE=%m" -T "COMMENT=EAC FLAC -8" %s
TOC of the extracted CD
Track | Start | Length | Start sector | End sector
---------------------------------------------------------
1 | 0:00.32 | 2:48.70 | 32 | 12701
2 | 2:49.27 | 3:17.48 | 12702 | 27524
3 | 6:07.00 | 4:24.10 | 27525 | 47334
4 | 10:31.10 | 3:48.55 | 47335 | 64489
5 | 14:19.65 | 4:41.52 | 64490 | 85616
6 | 19:01.42 | 3:47.25 | 85617 | 102666
7 | 22:48.67 | 3:31.53 | 102667 | 118544
8 | 26:20.45 | 4:20.20 | 118545 | 138064
9 | 30:40.65 | 2:45.50 | 138065 | 150489
10 | 33:26.40 | 2:01.27 | 150490 | 159591
Track 1
Filename G:\Gladys Knight And The Pips\01. Gladys Knight And The Pips -I Heard It Through The Grapeine.wav
Pre-gap length 0:00:02.42
Peak level 43.5 %
Track quality 100.0 %
Test CRC 0BB22E00
Copy CRC 0BB22E00
Accurately ripped (confidence 5) [FFCD6220]
Copy OK
Track 2
Filename G:\Gladys Knight And The Pips\02. Gladys Knight And The Pips -If I Were Your Woman.wav
Pre-gap length 0:00:02.13
Peak level 50.0 %
Track quality 100.0 %
Test CRC 2A7CD86D
Copy CRC 2A7CD86D
Accurately ripped (confidence 5) [6FED65B5]
Copy OK
Track 3
Filename G:\Gladys Knight And The Pips\03. Gladys Knight And The Pips -Neither One Of Us (Wants To Be The First To Say Goodbye).wav
Pre-gap length 0:00:02.70
Peak level 56.0 %
Track quality 100.0 %
Test CRC 95895B4A
Copy CRC 95895B4A
Accurately ripped (confidence 5) [3C6807F6]
Copy OK
Track 4
Filename G:\Gladys Knight And The Pips\04. Gladys Knight And The Pips -Friendship Train.wav
Pre-gap length 0:00:02.40
Peak level 43.9 %
Track quality 100.0 %
Test CRC D8398BA0
Copy CRC D8398BA0
Accurately ripped (confidence 5) [C6A5527E]
Copy OK
Track 5
Filename G:\Gladys Knight And The Pips\05. Gladys Knight And The Pips -Midnight Train To Georgia.wav
Pre-gap length 0:00:02.37
Peak level 75.6 %
Track quality 100.0 %
Test CRC 38EFECEF
Copy CRC 38EFECEF
Accurately ripped (confidence 5) [D26FADBE]
Copy OK
Track 6
Filename G:\Gladys Knight And The Pips\06. Gladys Knight And The Pips -You're The Best Thing That Ever Happened To Me.wav
Pre-gap length 0:00:02.69
Peak level 73.6 %
Track quality 100.0 %
Test CRC 1C98440A
Copy CRC 1C98440A
Accurately ripped (confidence 5) [4B8855BD]
Copy OK
Track 7
Filename G:\Gladys Knight And The Pips\07. Gladys Knight And The Pips -I've Got To Use My Imagination.wav
Pre-gap length 0:00:02.33
Peak level 75.4 %
Track quality 100.0 %
Test CRC 21295E17
Copy CRC 21295E17
Accurately ripped (confidence 5) [77433FB9]
Copy OK
Track 8
Filename G:\Gladys Knight And The Pips\08. Gladys Knight And The Pips -On And On.wav
Pre-gap length 0:00:02.60
Peak level 60.2 %
Track quality 100.0 %
Test CRC FABE61CD
Copy CRC FABE61CD
Accurately ripped (confidence 5) [088C4789]
Copy OK
Track 9
Filename G:\Gladys Knight And The Pips\09. Gladys Knight And The Pips -Letter Full Of Tears.wav
Pre-gap length 0:00:02.10
Peak level 46.0 %
Track quality 100.0 %
Test CRC 787F0E2B
Copy CRC 787F0E2B
Accurately ripped (confidence 5) [C948747B]
Copy OK
Track 10
Filename G:\Gladys Knight And The Pips\10. Gladys Knight And The Pips -Every Beat Of My Heart.wav
Pre-gap length 0:00:02.66
Peak level 74.7 %
Track quality 100.0 %
Test CRC 342336CD
Copy CRC 342336CD
Accurately ripped (confidence 5) [A7E05BA5]
Copy OK
All tracks accurately ripped
No errors occurred
End of status report
CUE:
 
скрытый текст
REM GENRE Soul/Funk
REM DATE 1990
REM DISCID 75084F0A
REM COMMENT "ExactAudioCopy v0.99pb5"
PERFORMER "Gladys Knight And The Pips"
TITLE "Greatest Hits"
FILE "01. Gladys Knight And The Pips -I Heard It Through The Grapeine.wav" WAVE
TRACK 01 AUDIO
TITLE "I Heard It Through The Grapeine"
PERFORMER "Gladys Knight And The Pips"
PREGAP 00:00:32
INDEX 01 00:00:00
TRACK 02 AUDIO
TITLE "If I Were Your Woman"
PERFORMER "Gladys Knight And The Pips"
INDEX 00 02:46:60
FILE "02. Gladys Knight And The Pips -If I Were Your Woman.wav" WAVE
INDEX 01 00:00:00
TRACK 03 AUDIO
TITLE "Neither One Of Us (Wants To Be The First To Say Goodbye)"
PERFORMER "Gladys Knight And The Pips"
INDEX 00 03:14:70
FILE "03. Gladys Knight And The Pips -Neither One Of Us (Wants To Be The First To Say Goodbye).wav" WAVE
INDEX 01 00:00:00
TRACK 04 AUDIO
TITLE "Friendship Train"
PERFORMER "Gladys Knight And The Pips"
INDEX 00 04:21:55
FILE "04. Gladys Knight And The Pips -Friendship Train.wav" WAVE
INDEX 01 00:00:00
TRACK 05 AUDIO
TITLE "Midnight Train To Georgia"
PERFORMER "Gladys Knight And The Pips"
INDEX 00 03:46:27
FILE "05. Gladys Knight And The Pips -Midnight Train To Georgia.wav" WAVE
INDEX 01 00:00:00
TRACK 06 AUDIO
TITLE "You're The Best Thing That Ever Happened To Me"
PERFORMER "Gladys Knight And The Pips"
INDEX 00 04:39:00
FILE "06. Gladys Knight And The Pips -You're The Best Thing That Ever Happened To Me.wav" WAVE
INDEX 01 00:00:00
TRACK 07 AUDIO
TITLE "I've Got To Use My Imagination"
PERFORMER "Gladys Knight And The Pips"
INDEX 00 03:45:00
FILE "07. Gladys Knight And The Pips -I've Got To Use My Imagination.wav" WAVE
INDEX 01 00:00:00
TRACK 08 AUDIO
TITLE "On And On"
PERFORMER "Gladys Knight And The Pips"
INDEX 00 03:29:08
FILE "08. Gladys Knight And The Pips -On And On.wav" WAVE
INDEX 01 00:00:00
TRACK 09 AUDIO
TITLE "Letter Full Of Tears"
PERFORMER "Gladys Knight And The Pips"
INDEX 00 04:18:12
FILE "09. Gladys Knight And The Pips -Letter Full Of Tears.wav" WAVE
INDEX 01 00:00:00
TRACK 10 AUDIO
TITLE "Every Beat Of My Heart"
PERFORMER "Gladys Knight And The Pips"
INDEX 00 02:43:00
FILE "10. Gladys Knight And The Pips -Every Beat Of My Heart.wav" WAVE
INDEX 01 00:00:00
Приватный:
Нет (DHT включён)
Размер:
187.66 Мб (196,779,920 байт) » файлов: 13
Участники:
0 раздают, 0 качают (0 участников всего)
Внешние участники:
9 раздают, 3 качают (12 участников всего) [ Обновить ]
Никого нет на раздаче - пишите личное сообщение M0p94ok
No seeders - write personal message to M0p94ok
03:39
29
Нет комментариев. Ваш будет первым!