Поиск

(Soul) Barry White - Best of love - 1995, APE (image+.cue), lossless

(Soul) Barry White - Best of love - 1995, APE (image+.cue), lossless
Треклист:
Barry White - Best of love -1995
Жанр: Soul
Год выпуска диска: 1995
Производитель диска: Arcade
Аудио кодек: APE
Тип рипа: image+.cue
Битрейт аудио: lossless
Продолжительность: 02:35:59
 
Трэклист
CD 1:
01 Change
02 I found love
03 Your love. Your Love
04 Tell me who do you love
05 Oooo. Ahhh...
06 It ain't love. Babe (until you give it)
07 Let's make tonight (an evening to remember)
08 I won't settle for less than the best (for you baby)
09 Turnin'on Turnin in (to your love)
10 Don't tell me abaout heartaches
11 I'm on fire
12 You're my high
13 The better love is (the worse it is when it's over)
14 Relax to the max
15 America
16 Louie Louie
17 Any fool could see (you were meant for me)
CD 2:
01 Ghetto letto
02 Hung up in your love
03 You're the only one for me
04 Let me in and let's begin with love
05 I want you
06 Passion
07 Love ain't easy
08 I like you. You like me
09 It's all about love
10 Beware
11 Love song
12 Don't let 'em blow your mind
13 She's everything to me
14 I believe in love
15 Lady, sweet lady
16 Sheet music
17 You're the one I need
 
Отчёт EAC
 
CD 1
Отчёт EAC об извлечении, выполненном 20. марта 2010, 2:45
Barry White / Best of love
Дисковод: PIONEER DVD-RW DVR-212D Adapter: 3 ID: 0
Режим чтения : Достоверность
Использование точного потока : Да
Отключение кэша аудио : Да
Использование указателей C2 : Нет
Коррекция смещения при чтении : 48
Способность читать области Lead-in и Lead-out : Нет
Заполнение пропущенных сэмплов тишиной : Да
Удаление блоков с тишиной в начале и конце : Нет
При вычислениях CRC использовались нулевые сэмплы : Да
Интерфейс : Встроенный Win32-интерфейс для Win NT/2000
Выходной формат : Внутренние WAV-операции
Формат сэмплов : 44.100 Гц; 16 бит; стерео
TOC извлечённого CD
Трек | Старт | Длительность | Начальный сектор | Конечный сектор
---------------------------------------------------------------------
1 | 0:00.32 | 6:10.63 | 32 | 27844
2 | 6:11.20 | 4:11.45 | 27845 | 46714
3 | 10:22.65 | 4:16.72 | 46715 | 65986
4 | 14:39.62 | 2:07.50 | 65987 | 75561
5 | 16:47.37 | 3:54.60 | 75562 | 93171
6 | 20:42.22 | 4:10.48 | 93172 | 111969
7 | 24:52.70 | 5:04.20 | 111970 | 134789
8 | 29:57.15 | 4:16.00 | 134790 | 153989
9 | 34:13.15 | 5:12.15 | 153990 | 177404
10 | 39:25.30 | 6:53.70 | 177405 | 208449
11 | 46:19.25 | 5:24.55 | 208450 | 232804
12 | 51:44.05 | 2:11.60 | 232805 | 242689
13 | 53:55.65 | 4:20.10 | 242690 | 262199
14 | 58:16.00 | 3:35.00 | 262200 | 278324
15 | 61:51.00 | 5:20.70 | 278325 | 302394
16 | 67:11.70 | 6:31.17 | 302395 | 331736
17 | 73:43.12 | 4:17.03 | 331737 | 351014
Характеристики диапазона извлечения и сообщения об ошибках
Выбранный диапазон
Имя файла W:\Barry White\CD 1\Barry White - Best of love.wav
Пиковый уровень 100.0 %
Качество диапазона 100.0 %
CRC теста CB9A6081
CRC копии CB9A6081
Копирование... OK
Ошибок не произошло
AccurateRip: сводка
Трек 1 нет в базе данных
Трек 2 нет в базе данных
Трек 3 нет в базе данных
Трек 4 нет в базе данных
Трек 5 нет в базе данных
Трек 6 нет в базе данных
Трек 7 нет в базе данных
Трек 8 нет в базе данных
Трек 9 нет в базе данных
Трек 10 нет в базе данных
Трек 11 нет в базе данных
Трек 12 нет в базе данных
Трек 13 нет в базе данных
Трек 14 нет в базе данных
Трек 15 нет в базе данных
Трек 16 нет в базе данных
Трек 17 нет в базе данных
Ни одного трека нет в базе AccurateRip
Конец отчёта
 
CD 2
Exact Audio Copy V0.99 prebeta 5 from 4. May 2009
Отчёт EAC об извлечении, выполненном 21. марта 2010, 22:11
Barry White / Best of Love (disc 2)
Дисковод: PIONEER DVD-RW DVR-212D Adapter: 3 ID: 0
Режим чтения : Достоверность
Использование точного потока : Да
Отключение кэша аудио : Да
Использование указателей C2 : Нет
Коррекция смещения при чтении : 48
Способность читать области Lead-in и Lead-out : Нет
Заполнение пропущенных сэмплов тишиной : Да
Удаление блоков с тишиной в начале и конце : Нет
При вычислениях CRC использовались нулевые сэмплы : Да
Интерфейс : Установленный внешний ASPI-интерфейс
Выходной формат : Внутренние WAV-операции
Формат сэмплов : 44.100 Гц; 16 бит; стерео
TOC извлечённого CD
Трек | Старт | Длительность | Начальный сектор | Конечный сектор
---------------------------------------------------------------------
1 | 0:00.32 | 5:09.68 | 32 | 23274
2 | 5:10.25 | 3:43.37 | 23275 | 40036
3 | 8:53.62 | 4:19.68 | 40037 | 59529
4 | 13:13.55 | 5:15.40 | 59530 | 83194
5 | 18:29.20 | 3:47.50 | 83195 | 100269
6 | 22:16.70 | 5:12.12 | 100270 | 123681
7 | 27:29.07 | 5:09.15 | 123682 | 146871
8 | 32:38.22 | 4:41.10 | 146872 | 167956
9 | 37:19.32 | 3:48.68 | 167957 | 185124
10 | 41:08.25 | 4:54.65 | 185125 | 207239
11 | 46:03.15 | 4:30.10 | 207240 | 227499
12 | 50:33.25 | 4:17.22 | 227500 | 246796
13 | 54:50.47 | 3:29.58 | 246797 | 262529
14 | 58:20.30 | 5:12.17 | 262530 | 285946
15 | 63:32.47 | 4:25.68 | 285947 | 305889
16 | 67:58.40 | 5:43.02 | 305890 | 331616
17 | 73:41.42 | 4:18.08 | 331617 | 350974
Характеристики диапазона извлечения и сообщения об ошибках
Выбранный диапазон
Имя файла W:\Barry White\CD 2\Barry White - Best of Love (disc 2).wav
Пиковый уровень 100.0 %
Качество диапазона 100.0 %
CRC теста EC25FD25
CRC копии EC25FD25
Копирование... OK
Ошибок не произошло
AccurateRip: сводка
Трек 1 нет в базе данных
Трек 2 нет в базе данных
Трек 3 нет в базе данных
Трек 4 нет в базе данных
Трек 5 нет в базе данных
Трек 6 нет в базе данных
Трек 7 нет в базе данных
Трек 8 нет в базе данных
Трек 9 нет в базе данных
Трек 10 нет в базе данных
Трек 11 нет в базе данных
Трек 12 нет в базе данных
Трек 13 нет в базе данных
Трек 14 нет в базе данных
Трек 15 нет в базе данных
Трек 16 нет в базе данных
Трек 17 нет в базе данных
Ни одного трека нет в базе AccurateRip
Конец отчёта
 
Tau Analyzer




Доп. информация: Рип дисков из собственной коллекции СD.
Приватный:
Нет (DHT включён)
Размер:
930.58 Мб (975,785,986 байт) » файлов: 26
Участники:
0 раздают, 0 качают (0 участников всего)
Внешние участники:
1 раздают, 0 качают (1 участников всего) [ Обновить ]
Нет сидеров - пишите личное сообщение M0p94ok. Не нравятся торренты? Участники группы Pro-jazz Club могут заказать прямую ссылку на скачивание из облака.
No seeders - write a personal message to M0p94ok. Don't like torrents? Members of Pro-jazz Club group can order a direct download link from the cloud.
03:38
23
Нет комментариев. Ваш будет первым!