Поиск

(Soul) Ben E. King - The Very Best (1959-1975) - 1998, FLAC (image+.cue), lossless

(Soul) Ben E. King - The Very Best (1959-1975) - 1998, FLAC (image+.cue), lossless
Треклист:
Ben E. King - The Very Best (1959-1975)
Жанр: Soul
Год выпуска диска: 1998
Производитель диска: Germany
Label: Rhino (8122-72970-2)
Аудио кодек: FLAC
Тип рипа: image+.cue
Битрейт аудио: lossless
Продолжительность: 42:53
 
Трэклист
01. There Goes My Baby
02. Dance With Me
03. This Magic Moment
04. Save The Last Dance For Me
05. I Count The Tears
06. Spanish Harlem
07. Stand By Me
08. On The Horizon
09. Amor
10. Young Boy Blues
11. Here Comes The Night
12. Don't Play That Song (You Lied)
13. How Can I Forget
14. I (Who Have Nothing)
15. Supernatural Thing, Part I
16. Do It In The Name Of Love
 
Отчет EAC
Exact Audio Copy V0.99 prebeta 4 from 23. January 2008
EAC extraction logfile from 7. October 2008, 20:44
Ben E. King / The Very Best Of
Used drive : LITE-ON CD-RW SOHR-5238S Adapter: 1 ID: 1
Read mode : Secure
Utilize accurate stream : Yes
Defeat audio cache : Yes
Make use of C2 pointers : No
Read offset correction : 6
Overread into Lead-In and Lead-Out : No
Fill up missing offset samples with silence : Yes
Delete leading and trailing silent blocks : No
Null samples used in CRC calculations : Yes
Used interface : Installed external ASPI interface
Used output format : Internal WAV Routines
Sample format : 44.100 Hz; 16 Bit; Stereo
TOC of the extracted CD
Track | Start | Length | Start sector | End sector
---------------------------------------------------------
1 | 0:00.00 | 2:16.15 | 0 | 10214
2 | 2:16.15 | 2:25.60 | 10215 | 21149
3 | 4:42.00 | 2:32.07 | 21150 | 32556
4 | 7:14.07 | 2:36.20 | 32557 | 44276
5 | 9:50.27 | 2:10.38 | 44277 | 54064
6 | 12:00.65 | 2:55.62 | 54065 | 67251
7 | 14:56.52 | 2:57.20 | 67252 | 80546
8 | 17:53.72 | 2:20.45 | 80547 | 91091
9 | 20:14.42 | 2:57.18 | 91092 | 104384
10 | 23:11.60 | 2:20.40 | 104385 | 114924
11 | 25:32.25 | 2:27.45 | 114925 | 125994
12 | 27:59.70 | 2:56.22 | 125995 | 139216
13 | 30:56.17 | 2:22.48 | 139217 | 149914
14 | 33:18.65 | 2:33.30 | 149915 | 161419
15 | 35:52.20 | 3:26.45 | 161420 | 176914
16 | 39:18.65 | 3:34.57 | 176915 | 193021
Range status and errors
Selected range
Filename I:\rips\BEK VB\Ben E. King - The Very Best Of.wav
Peak level 100.0 %
Range quality 100.0 %
Test CRC EF9DFEFA
Copy CRC EF9DFEFA
Copy OK
No errors occurred
End of status report
 
auCDtect
-----------------------
DON'T MODIFY THIS FILE
-----------------------
PERFORMER: auCDtect Task Manager, ver. 1.0.0 Stable build 1.0.0.0
Copyright (c) 2008, 2009 y-soft. All rights reserved
http://y-soft.110mb.com
ANALYZER: auCDtect: CD records authenticity detector, version 0.8.2
Copyright (c) 2004 Oleg Berngardt. All rights reserved.
Copyright (c) 2004 Alexander Djourik. All rights reserved.
FILE: Ben E. King - The Very Best Of.flac
Size: 205144528 Hash: 3BB86763B9DFCD4B345DBC70B6C94F62 Accuracy: -m8
Conclusion: CDDA 100%
Signature: F020214532048F6C7795A6D87F16D11EABAB2235
Источник: [релизер: garet jax]
Доп. информация: сканы присутствуют
Мои раздачи на трекере / My other uploads
Приватный:
Нет (DHT включён)
Размер:
203.80 Мб (213,704,746 байт) » файлов: 18
Участники:
0 раздают, 0 качают (0 участников всего)
Внешние участники:
1 раздают, 0 качают (1 участников всего) [ Обновить ]
Никого нет на раздаче - пишите личное сообщение M0p94ok
No seeders - write personal message to M0p94ok
03:43
19
Нет комментариев. Ваш будет первым!