Поиск

(Soul) Jackie Wilson - Best Of The Original Soul Brother (1957-1976) 2CD - 2006, FLAC (tracks+.cue), lossless

(Soul) Jackie Wilson - Best Of The Original Soul Brother (1957-1976) 2CD - 2006, FLAC (tracks+.cue), lossless
Треклист:
Jackie Wilson - Best Of The Original Soul Brother (1957-1976) 2CD
Жанр: Soul
Год выпуска диска: 2006
Производитель диска: EU
Label: Demon / Music Club DeLuxe (MCDLX022)
Аудио кодек: FLAC
Тип рипа: tracks+.cue
Битрейт аудио: lossless
Продолжительность: 55:54 / 58:08
 
Трэклист
 
Disc 1
01. I Get The Sweetest Feeling
02. Nothing But Blue Skies
03. (Your Love Keeps Lifting Me) Higher & Higher
04. The Who Who Song
05. I've Lost You
06. A Woman Needs To Be Loved
07. Just Be Sincere
08. I Don't Want To Lose You
09. Whispers (Gettin' Louder)
10. I'm The One To Do It
11. You Brought About A Change In Me
12. I Was Made To Love Her
13. Think About The Good Times
14. You Left The Fire Burning
15. Love Uprising
16. This Love Is Real
17. You Got Me Walking
18. Hard To Get A Thing Called Love
19. Beautiful Day
20. Because Of You
 
Disc 2
01. Reet Petite
02. My Tale Of Woe
03. Joshua Fit The Battle Of Jericho
04. Danny Boy
05. No Pity
06. Soul Time
07. Stop Lying
08. Brand New Thing (Part 2)
09. Soul Galore
10. Since You Showed Me How To Be Happy
11. You Can Count On Me
12. Think Twice
13. Haunted House
14. For Your Precious Love
15. Who Can I Turn To
16. Nobody But You
17. Just As Soon As The Feeling's Over
18. Don't Burn No Bridges
19. You're The Song I Can't Stop Singing
20. I've Learned About Life
 
Отчет EAC
 
Disc 1
Exact Audio Copy V0.99 prebeta 5 from 4. May 2009
EAC extraction logfile from 24. June 2009, 21:17
Jackie Wilson / Best of the Original Soul Brother - Disc 1
Used drive : LITE-ON CD-RW SOHR-5238S Adapter: 5 ID: 3
Read mode : Secure
Utilize accurate stream : Yes
Defeat audio cache : Yes
Make use of C2 pointers : No
Read offset correction : 6
Overread into Lead-In and Lead-Out : No
Fill up missing offset samples with silence : Yes
Delete leading and trailing silent blocks : No
Null samples used in CRC calculations : Yes
Used interface : Installed external ASPI interface
Gap handling : Appended to previous track
Used output format : Internal WAV Routines
Sample format : 44.100 Hz; 16 Bit; Stereo
TOC of the extracted CD
Track | Start | Length | Start sector | End sector
---------------------------------------------------------
1 | 0:00.00 | 2:56.35 | 0 | 13234
2 | 2:56.35 | 2:15.45 | 13235 | 23404
3 | 5:12.05 | 2:57.31 | 23405 | 36710
4 | 8:09.36 | 2:53.32 | 36711 | 49717
5 | 11:02.68 | 2:41.40 | 49718 | 61832
6 | 13:44.33 | 2:48.72 | 61833 | 74504
7 | 16:33.30 | 2:54.48 | 74505 | 87602
8 | 19:28.03 | 2:47.66 | 87603 | 100193
9 | 22:15.69 | 2:18.43 | 100194 | 110586
10 | 24:34.37 | 2:33.71 | 110587 | 122132
11 | 27:08.33 | 2:47.32 | 122133 | 134689
12 | 29:55.65 | 2:51.40 | 134690 | 147554
13 | 32:47.30 | 3:02.45 | 147555 | 161249
14 | 35:50.00 | 2:33.09 | 161250 | 172733
15 | 38:23.09 | 2:31.02 | 172734 | 184060
16 | 40:54.11 | 2:55.08 | 184061 | 197193
17 | 43:49.19 | 2:43.71 | 197194 | 209489
18 | 46:33.15 | 2:26.69 | 209490 | 220508
19 | 49:00.09 | 3:38.27 | 220509 | 236885
20 | 52:38.36 | 3:16.09 | 236886 | 251594
Track 1
Filename F:\eac\Jackie\D1\01 - I Get The Sweetest Feeling.wav
Pre-gap length 0:00:02.00
Peak level 97.7 %
Track quality 100.0 %
Test CRC 92EA0D27
Copy CRC 92EA0D27
Accurately ripped (confidence 2) [7537343D]
Copy OK
Track 2
Filename F:\eac\Jackie\D1\02 - Nothing But Blue Skies.wav
Pre-gap length 0:00:02.69
Peak level 97.7 %
Track quality 100.0 %
Test CRC 461B4CD2
Copy CRC 461B4CD2
Accurately ripped (confidence 2) [154060F6]
Copy OK
Track 3
Filename F:\eac\Jackie\D1\03 - (Your Love Keeps Lifting Me) Higher & Higher.wav
Pre-gap length 0:00:02.60
Peak level 97.7 %
Track quality 100.0 %
Test CRC 94EA423F
Copy CRC 94EA423F
Accurately ripped (confidence 2) [C6D7776E]
Copy OK
Track 4
Filename F:\eac\Jackie\D1\04 - The Who Who Song.wav
Pre-gap length 0:00:02.65
Peak level 97.7 %
Track quality 100.0 %
Test CRC F925CE40
Copy CRC F925CE40
Accurately ripped (confidence 2) [4C0F6C27]
Copy OK
Track 5
Filename F:\eac\Jackie\D1\05 - I've Lost You.wav
Pre-gap length 0:00:02.64
Peak level 97.7 %
Track quality 100.0 %
Test CRC ED5544A4
Copy CRC ED5544A4
Accurately ripped (confidence 2) [03779757]
Copy OK
Track 6
Filename F:\eac\Jackie\D1\06 - A Woman Needs To Be Loved.wav
Pre-gap length 0:00:03.09
Peak level 97.7 %
Track quality 100.0 %
Test CRC 53E14FF8
Copy CRC 53E14FF8
Accurately ripped (confidence 2) [CBFE3121]
Copy OK
Track 7
Filename F:\eac\Jackie\D1\07 - Just Be Sincere.wav
Pre-gap length 0:00:02.57
Peak level 97.7 %
Track quality 100.0 %
Test CRC B2C852DA
Copy CRC B2C852DA
Accurately ripped (confidence 2) [D0EB9339]
Copy OK
Track 8
Filename F:\eac\Jackie\D1\08 - I Don't Want To Lose You.wav
Pre-gap length 0:00:02.54
Peak level 97.7 %
Track quality 100.0 %
Test CRC 5CD557E7
Copy CRC 5CD557E7
Accurately ripped (confidence 2) [088A62CB]
Copy OK
Track 9
Filename F:\eac\Jackie\D1\09 - Whispers (Gettin' Louder).wav
Pre-gap length 0:00:03.65
Peak level 97.7 %
Track quality 100.0 %
Test CRC 113C0CFD
Copy CRC 113C0CFD
Accurately ripped (confidence 2) [AB480205]
Copy OK
Track 10
Filename F:\eac\Jackie\D1\10 - I'm The One To Do It.wav
Pre-gap length 0:00:02.55
Peak level 97.7 %
Track quality 100.0 %
Test CRC 31594C96
Copy CRC 31594C96
Accurately ripped (confidence 2) [8118053C]
Copy OK
Track 11
Filename F:\eac\Jackie\D1\11 - You Brought About A Change In Me.wav
Pre-gap length 0:00:02.71
Peak level 97.7 %
Track quality 100.0 %
Test CRC A1551E87
Copy CRC A1551E87
Accurately ripped (confidence 2) [79722DBA]
Copy OK
Track 12
Filename F:\eac\Jackie\D1\12 - I Was Made To Love Her.wav
Pre-gap length 0:00:02.72
Peak level 97.7 %
Track quality 100.0 %
Test CRC 92971B2D
Copy CRC 92971B2D
Accurately ripped (confidence 2) [2F7675F4]
Copy OK
Track 13
Filename F:\eac\Jackie\D1\13 - Think About The Good Times.wav
Pre-gap length 0:00:02.63
Peak level 97.7 %
Track quality 99.9 %
Test CRC 218DF7DF
Copy CRC 218DF7DF
Accurately ripped (confidence 2) [BF889120]
Copy OK
Track 14
Filename F:\eac\Jackie\D1\14 - You Left The Fire Burning.wav
Pre-gap length 0:00:03.04
Peak level 97.7 %
Track quality 100.0 %
Test CRC 073F90C9
Copy CRC 073F90C9
Accurately ripped (confidence 2) [1582EAC9]
Copy OK
Track 15
Filename F:\eac\Jackie\D1\15 - Love Uprising.wav
Pre-gap length 0:00:03.10
Peak level 97.7 %
Track quality 100.0 %
Test CRC 9CAE1A64
Copy CRC 9CAE1A64
Accurately ripped (confidence 2) [FD6F33F7]
Copy OK
Track 16
Filename F:\eac\Jackie\D1\16 - This Love Is Real.wav
Pre-gap length 0:00:02.67
Peak level 97.7 %
Track quality 100.0 %
Test CRC 5B0BA924
Copy CRC 5B0BA924
Accurately ripped (confidence 2) [B22B4BD1]
Copy OK
Track 17
Filename F:\eac\Jackie\D1\17 - You Got Me Walking.wav
Pre-gap length 0:00:02.68
Peak level 97.7 %
Track quality 100.0 %
Test CRC 1429CD86
Copy CRC 1429CD86
Accurately ripped (confidence 2) [93D5DDAD]
Copy OK
Track 18
Filename F:\eac\Jackie\D1\18 - Hard To Get A Thing Called Love.wav
Pre-gap length 0:00:03.09
Peak level 97.7 %
Track quality 100.0 %
Test CRC 7F00BB74
Copy CRC 7F00BB74
Accurately ripped (confidence 2) [A9858479]
Copy OK
Track 19
Filename F:\eac\Jackie\D1\19 - Beautiful Day.wav
Pre-gap length 0:00:03.05
Peak level 97.7 %
Track quality 100.0 %
Test CRC 2D5AF194
Copy CRC 2D5AF194
Accurately ripped (confidence 2) [ECAB40D6]
Copy OK
Track 20
Filename F:\eac\Jackie\D1\20 - Because Of You.wav
Pre-gap length 0:00:02.52
Peak level 97.7 %
Track quality 100.0 %
Test CRC FA8555C9
Copy CRC FA8555C9
Accurately ripped (confidence 2) [46E183C2]
Copy OK
All tracks accurately ripped
No errors occurred
End of status report
 
Disc 2
Exact Audio Copy V0.99 prebeta 5 from 4. May 2009
EAC extraction logfile from 24. June 2009, 22:59
Jackie Wilson / Best of the Original Soul Brother - Disc 2
Used drive : LITE-ON CD-RW SOHR-5238S Adapter: 5 ID: 3
Read mode : Secure
Utilize accurate stream : Yes
Defeat audio cache : Yes
Make use of C2 pointers : No
Read offset correction : 6
Overread into Lead-In and Lead-Out : No
Fill up missing offset samples with silence : Yes
Delete leading and trailing silent blocks : No
Null samples used in CRC calculations : Yes
Used interface : Installed external ASPI interface
Gap handling : Appended to previous track
Used output format : Internal WAV Routines
Sample format : 44.100 Hz; 16 Bit; Stereo
TOC of the extracted CD
Track | Start | Length | Start sector | End sector
---------------------------------------------------------
1 | 0:00.00 | 2:45.65 | 0 | 12439
2 | 2:45.65 | 3:01.38 | 12440 | 26052
3 | 5:47.28 | 2:28.35 | 26053 | 37187
4 | 8:15.63 | 4:18.46 | 37188 | 56583
5 | 12:34.34 | 3:30.27 | 56584 | 72360
6 | 16:04.61 | 2:25.29 | 72361 | 83264
7 | 18:30.15 | 2:12.51 | 83265 | 93215
8 | 20:42.66 | 2:48.11 | 93216 | 105826
9 | 23:31.02 | 2:49.13 | 105827 | 118514
10 | 26:20.15 | 2:47.39 | 118515 | 131078
11 | 29:07.54 | 2:21.51 | 131079 | 141704
12 | 31:29.30 | 2:32.22 | 141705 | 153126
13 | 34:01.52 | 3:07.42 | 153127 | 167193
14 | 37:09.19 | 2:39.10 | 167194 | 179128
15 | 39:48.29 | 2:45.31 | 179129 | 191534
16 | 42:33.60 | 3:00.51 | 191535 | 205085
17 | 45:34.36 | 3:14.31 | 205086 | 219666
18 | 48:48.67 | 3:30.22 | 219667 | 235438
19 | 52:19.14 | 2:48.66 | 235439 | 248104
20 | 55:08.05 | 3:00.33 | 248105 | 261637
Track 1
Filename F:\eac\Jackie\D2\01 - Reet Petite.wav
Pre-gap length 0:00:02.00
Peak level 97.7 %
Track quality 100.0 %
Test CRC FCD36877
Copy CRC FCD36877
Accurately ripped (confidence 2) [7C05C48E]
Copy OK
Track 2
Filename F:\eac\Jackie\D2\02 - My Tale Of Woe.wav
Pre-gap length 0:00:03.01
Peak level 97.7 %
Track quality 100.0 %
Test CRC 4C235EC4
Copy CRC 4C235EC4
Accurately ripped (confidence 2) [D0720822]
Copy OK
Track 3
Filename F:\eac\Jackie\D2\03 - Joshua Fit The Battle Of Jericho.wav
Pre-gap length 0:00:02.58
Peak level 97.7 %
Track quality 100.0 %
Test CRC FC3D6F1E
Copy CRC FC3D6F1E
Accurately ripped (confidence 2) [2502E9E5]
Copy OK
Track 4
Filename F:\eac\Jackie\D2\04 - Danny Boy.wav
Pre-gap length 0:00:02.55
Peak level 97.7 %
Track quality 100.0 %
Test CRC 50C9F9A4
Copy CRC 50C9F9A4
Accurately ripped (confidence 2) [572C882F]
Copy OK
Track 5
Filename F:\eac\Jackie\D2\05 - No Pity.wav
Pre-gap length 0:00:03.33
Peak level 97.7 %
Track quality 100.0 %
Test CRC 25905127
Copy CRC 25905127
Accurately ripped (confidence 2) [B3CB0836]
Copy OK
Track 6
Filename F:\eac\Jackie\D2\06 - Soul Time.wav
Pre-gap length 0:00:02.30
Peak level 97.7 %
Track quality 100.0 %
Test CRC B83BE56A
Copy CRC B83BE56A
Accurately ripped (confidence 2) [78B6B035]
Copy OK
Track 7
Filename F:\eac\Jackie\D2\07 - Stop Lying.wav
Pre-gap length 0:00:02.53
Peak level 97.7 %
Track quality 100.0 %
Test CRC 44E3A171
Copy CRC 44E3A171
Accurately ripped (confidence 2) [A17EF423]
Copy OK
Track 8
Filename F:\eac\Jackie\D2\08 - Brand New Thing (Pt.2).wav
Pre-gap length 0:00:02.60
Peak level 97.7 %
Track quality 100.0 %
Test CRC CDAA6178
Copy CRC CDAA6178
Accurately ripped (confidence 2) [9CDDF42B]
Copy OK
Track 9
Filename F:\eac\Jackie\D2\09 - Soul Galore.wav
Pre-gap length 0:00:02.57
Peak level 97.7 %
Track quality 100.0 %
Test CRC 46612A80
Copy CRC 46612A80
Accurately ripped (confidence 2) [A49AE72A]
Copy OK
Track 10
Filename F:\eac\Jackie\D2\10 - Since You Showed Me How To Be Happy.wav
Pre-gap length 0:00:03.03
Peak level 97.7 %
Track quality 100.0 %
Test CRC C4D503B5
Copy CRC C4D503B5
Accurately ripped (confidence 2) [9E3759C5]
Copy OK
Track 11
Filename F:\eac\Jackie\D2\11 - You Can Count On Me.wav
Pre-gap length 0:00:02.59
Peak level 97.7 %
Track quality 100.0 %
Test CRC 811F6170
Copy CRC 811F6170
Accurately ripped (confidence 2) [F77C9554]
Copy OK
Track 12
Filename F:\eac\Jackie\D2\12 - Think Twice.wav
Pre-gap length 0:00:03.31
Peak level 97.7 %
Track quality 100.0 %
Test CRC 5E0C0CE1
Copy CRC 5E0C0CE1
Accurately ripped (confidence 2) [A2DA71F0]
Copy OK
Track 13
Filename F:\eac\Jackie\D2\13 - Haunted House.wav
Pre-gap length 0:00:02.53
Peak level 97.7 %
Track quality 100.0 %
Test CRC B3481A19
Copy CRC B3481A19
Accurately ripped (confidence 2) [293DBA38]
Copy OK
Track 14
Filename F:\eac\Jackie\D2\14 - For Your Precious Love.wav
Pre-gap length 0:00:02.52
Peak level 97.7 %
Track quality 100.0 %
Test CRC 387A8E69
Copy CRC 387A8E69
Accurately ripped (confidence 2) [0DE87442]
Copy OK
Track 15
Filename F:\eac\Jackie\D2\15 - Who Can I Turn To.wav
Pre-gap length 0:00:02.52
Peak level 97.7 %
Track quality 100.0 %
Test CRC A3F8CC29
Copy CRC A3F8CC29
Accurately ripped (confidence 2) [C8E3305F]
Copy OK
Track 16
Filename F:\eac\Jackie\D2\16 - Nobody But You.wav
Pre-gap length 0:00:02.70
Peak level 97.7 %
Track quality 100.0 %
Test CRC F570DD6B
Copy CRC F570DD6B
Accurately ripped (confidence 2) [3FDA30E9]
Copy OK
Track 17
Filename F:\eac\Jackie\D2\17 - Just As Soon As The Feeling's Over.wav
Pre-gap length 0:00:02.49
Peak level 97.7 %
Track quality 100.0 %
Test CRC 40B65E3F
Copy CRC 40B65E3F
Accurately ripped (confidence 2) [BB87DB0C]
Copy OK
Track 18
Filename F:\eac\Jackie\D2\18 - Don't Burn No Bridges.wav
Pre-gap length 0:00:02.55
Peak level 97.7 %
Track quality 100.0 %
Test CRC 0080AFC5
Copy CRC 0080AFC5
Accurately ripped (confidence 2) [DBEDFE67]
Copy OK
Track 19
Filename F:\eac\Jackie\D2\19 - You're The Song I Can't Stop Singing.wav
Pre-gap length 0:00:02.62
Peak level 97.7 %
Track quality 100.0 %
Test CRC 818D1314
Copy CRC 818D1314
Accurately ripped (confidence 2) [A76CF354]
Copy OK
Track 20
Filename F:\eac\Jackie\D2\20 - I've Learned About Life.wav
Pre-gap length 0:00:02.51
Peak level 97.7 %
Track quality 100.0 %
Test CRC D7447873
Copy CRC D7447873
Accurately ripped (confidence 2) [191A4814]
Copy OK
All tracks accurately ripped
No errors occurred
End of status report
 
.cue
 
Disc 1
REM GENRE Soul
REM DATE 2006
REM DISCID 270D1A14
REM COMMENT "ExactAudioCopy v0.99pb5"
PERFORMER "Jackie Wilson"
TITLE "Best of the Original Soul Brother - Disc 1"
FILE "01 - I Get The Sweetest Feeling.wav" WAVE
TRACK 01 AUDIO
TITLE "I Get The Sweetest Feeling"
PERFORMER "Jackie Wilson"
INDEX 01 00:00:00
TRACK 02 AUDIO
TITLE "Nothing But Blue Skies"
PERFORMER "Jackie Wilson"
INDEX 00 02:53:41
FILE "02 - Nothing But Blue Skies.wav" WAVE
INDEX 01 00:00:00
TRACK 03 AUDIO
TITLE "(Your Love Keeps Lifting Me) Higher & Higher"
PERFORMER "Jackie Wilson"
INDEX 00 02:12:60
FILE "03 - (Your Love Keeps Lifting Me) Higher & Higher.wav" WAVE
INDEX 01 00:00:00
TRACK 04 AUDIO
TITLE "The Who Who Song"
PERFORMER "Jackie Wilson"
INDEX 00 02:54:41
FILE "04 - The Who Who Song.wav" WAVE
INDEX 01 00:00:00
TRACK 05 AUDIO
TITLE "I've Lost You"
PERFORMER "Jackie Wilson"
INDEX 00 02:50:43
FILE "05 - I've Lost You.wav" WAVE
INDEX 01 00:00:00
TRACK 06 AUDIO
TITLE "A Woman Needs To Be Loved"
PERFORMER "Jackie Wilson"
INDEX 00 02:38:31
FILE "06 - A Woman Needs To Be Loved.wav" WAVE
INDEX 01 00:00:00
TRACK 07 AUDIO
TITLE "Just Be Sincere"
PERFORMER "Jackie Wilson"
INDEX 00 02:46:15
FILE "07 - Just Be Sincere.wav" WAVE
INDEX 01 00:00:00
TRACK 08 AUDIO
TITLE "I Don't Want To Lose You"
PERFORMER "Jackie Wilson"
INDEX 00 02:51:69
FILE "08 - I Don't Want To Lose You.wav" WAVE
INDEX 01 00:00:00
TRACK 09 AUDIO
TITLE "Whispers (Gettin' Louder)"
PERFORMER "Jackie Wilson"
INDEX 00 02:44:01
FILE "09 - Whispers (Gettin' Louder).wav" WAVE
INDEX 01 00:00:00
TRACK 10 AUDIO
TITLE "I'm The One To Do It"
PERFORMER "Jackie Wilson"
INDEX 00 02:15:63
FILE "10 - I'm The One To Do It.wav" WAVE
INDEX 01 00:00:00
TRACK 11 AUDIO
TITLE "You Brought About A Change In Me"
PERFORMER "Jackie Wilson"
INDEX 00 02:31:00
FILE "11 - You Brought About A Change In Me.wav" WAVE
INDEX 01 00:00:00
TRACK 12 AUDIO
TITLE "I Was Made To Love Her"
PERFORMER "Jackie Wilson"
INDEX 00 02:44:35
FILE "12 - I Was Made To Love Her.wav" WAVE
INDEX 01 00:00:00
TRACK 13 AUDIO
TITLE "Think About The Good Times"
PERFORMER "Jackie Wilson"
INDEX 00 02:48:52
FILE "13 - Think About The Good Times.wav" WAVE
INDEX 01 00:00:00
TRACK 14 AUDIO
TITLE "You Left The Fire Burning"
PERFORMER "Jackie Wilson"
INDEX 00 02:59:41
FILE "14 - You Left The Fire Burning.wav" WAVE
INDEX 01 00:00:00
TRACK 15 AUDIO
TITLE "Love Uprising"
PERFORMER "Jackie Wilson"
INDEX 00 02:29:74
FILE "15 - Love Uprising.wav" WAVE
INDEX 01 00:00:00
TRACK 16 AUDIO
TITLE "This Love Is Real"
PERFORMER "Jackie Wilson"
INDEX 00 02:28:10
FILE "16 - This Love Is Real.wav" WAVE
INDEX 01 00:00:00
TRACK 17 AUDIO
TITLE "You Got Me Walking"
PERFORMER "Jackie Wilson"
INDEX 00 02:52:15
FILE "17 - You Got Me Walking.wav" WAVE
INDEX 01 00:00:00
TRACK 18 AUDIO
TITLE "Hard To Get A Thing Called Love"
PERFORMER "Jackie Wilson"
INDEX 00 02:40:62
FILE "18 - Hard To Get A Thing Called Love.wav" WAVE
INDEX 01 00:00:00
TRACK 19 AUDIO
TITLE "Beautiful Day"
PERFORMER "Jackie Wilson"
INDEX 00 02:23:64
FILE "19 - Beautiful Day.wav" WAVE
INDEX 01 00:00:00
TRACK 20 AUDIO
TITLE "Because Of You"
PERFORMER "Jackie Wilson"
INDEX 00 03:35:50
FILE "20 - Because Of You.wav" WAVE
INDEX 01 00:00:00
 
Disc 2
REM GENRE Soul
REM DATE 2006
REM DISCID 0D0DA014
REM COMMENT "ExactAudioCopy v0.99pb5"
PERFORMER "Jackie Wilson"
TITLE "Best of the Original Soul Brother - Disc 2"
FILE "01 - Reet Petite.wav" WAVE
TRACK 01 AUDIO
TITLE "Reet Petite"
PERFORMER "Jackie Wilson"
INDEX 01 00:00:00
TRACK 02 AUDIO
TITLE "My Tale Of Woe"
PERFORMER "Jackie Wilson"
INDEX 00 02:42:64
FILE "02 - My Tale Of Woe.wav" WAVE
INDEX 01 00:00:00
TRACK 03 AUDIO
TITLE "Joshua Fit The Battle Of Jericho"
PERFORMER "Jackie Wilson"
INDEX 00 02:58:55
FILE "03 - Joshua Fit The Battle Of Jericho.wav" WAVE
INDEX 01 00:00:00
TRACK 04 AUDIO
TITLE "Danny Boy"
PERFORMER "Jackie Wilson"
INDEX 00 02:25:55
FILE "04 - Danny Boy.wav" WAVE
INDEX 01 00:00:00
TRACK 05 AUDIO
TITLE "No Pity"
PERFORMER "Jackie Wilson"
INDEX 00 04:15:13
FILE "05 - No Pity.wav" WAVE
INDEX 01 00:00:00
TRACK 06 AUDIO
TITLE "Soul Time"
PERFORMER "Jackie Wilson"
INDEX 00 03:27:72
FILE "06 - Soul Time.wav" WAVE
INDEX 01 00:00:00
TRACK 07 AUDIO
TITLE "Stop Lying"
PERFORMER "Jackie Wilson"
INDEX 00 02:22:51
FILE "07 - Stop Lying.wav" WAVE
INDEX 01 00:00:00
TRACK 08 AUDIO
TITLE "Brand New Thing (Pt.2)"
PERFORMER "Jackie Wilson"
INDEX 00 02:09:66
FILE "08 - Brand New Thing (Pt.2).wav" WAVE
INDEX 01 00:00:00
TRACK 09 AUDIO
TITLE "Soul Galore"
PERFORMER "Jackie Wilson"
INDEX 00 02:45:29
FILE "09 - Soul Galore.wav" WAVE
INDEX 01 00:00:00
TRACK 10 AUDIO
TITLE "Since You Showed Me How To Be Happy"
PERFORMER "Jackie Wilson"
INDEX 00 02:46:10
FILE "10 - Since You Showed Me How To Be Happy.wav" WAVE
INDEX 01 00:00:00
TRACK 11 AUDIO
TITLE "You Can Count On Me"
PERFORMER "Jackie Wilson"
INDEX 00 02:44:55
FILE "11 - You Can Count On Me.wav" WAVE
INDEX 01 00:00:00
TRACK 12 AUDIO
TITLE "Think Twice"
PERFORMER "Jackie Wilson"
INDEX 00 02:18:20
FILE "12 - Think Twice.wav" WAVE
INDEX 01 00:00:00
TRACK 13 AUDIO
TITLE "Haunted House"
PERFORMER "Jackie Wilson"
INDEX 00 02:29:44
FILE "13 - Haunted House.wav" WAVE
INDEX 01 00:00:00
TRACK 14 AUDIO
TITLE "For Your Precious Love"
PERFORMER "Jackie Wilson"
INDEX 00 03:04:65
FILE "14 - For Your Precious Love.wav" WAVE
INDEX 01 00:00:00
TRACK 15 AUDIO
TITLE "Who Can I Turn To"
PERFORMER "Jackie Wilson"
INDEX 00 02:36:33
FILE "15 - Who Can I Turn To.wav" WAVE
INDEX 01 00:00:00
TRACK 16 AUDIO
TITLE "Nobody But You"
PERFORMER "Jackie Wilson"
INDEX 00 02:42:36
FILE "16 - Nobody But You.wav" WAVE
INDEX 01 00:00:00
TRACK 17 AUDIO
TITLE "Just As Soon As The Feeling's Over"
PERFORMER "Jackie Wilson"
INDEX 00 02:58:02
FILE "17 - Just As Soon As The Feeling's Over.wav" WAVE
INDEX 01 00:00:00
TRACK 18 AUDIO
TITLE "Don't Burn No Bridges"
PERFORMER "Jackie Wilson"
INDEX 00 03:11:51
FILE "18 - Don't Burn No Bridges.wav" WAVE
INDEX 01 00:00:00
TRACK 19 AUDIO
TITLE "You're The Song I Can't Stop Singing"
PERFORMER "Jackie Wilson"
INDEX 00 03:27:35
FILE "19 - You're The Song I Can't Stop Singing.wav" WAVE
INDEX 01 00:00:00
TRACK 20 AUDIO
TITLE "I've Learned About Life"
PERFORMER "Jackie Wilson"
INDEX 00 02:46:15
FILE "20 - I've Learned About Life.wav" WAVE
INDEX 01 00:00:00
 
auCDtect
 
Disc 1
-----------------------
DON'T MODIFY THIS FILE
-----------------------
PERFORMER: auCDtect Task Manager, ver. 1.0.0 Stable build 1.0.0.0
Copyright (c) 2008, 2009 y-soft. All rights reserved
http://y-soft.110mb.com
ANALYZER: auCDtect: CD records authenticity detector, version 0.8.2
Copyright (c) 2004 Oleg Berngardt. All rights reserved.
Copyright (c) 2004 Alexander Djourik. All rights reserved.
FILE: 02 - Nothing But Blue Skies.flac
Size: 14777395 Hash: 1D4F910DD7CA96612363176CB77B1058 Accuracy: -m40
Conclusion: CDDA 100%
Signature: 2A62AE6CB3AB5BFCCEBF47CD1EF735872C15C32A
FILE: 01 - I Get The Sweetest Feeling.flac
Size: 18416958 Hash: 0549BE577E6289314A3CEDBA7FA28E1D Accuracy: -m40
Conclusion: CDDA 100%
Signature: D1656B3569A1501372DF72DC6B7688455ED1F0C2
FILE: 03 - (Your Love Keeps Lifting Me) Higher & Higher.flac
Size: 19655397 Hash: 6F3BF7D7BB358AA98DC4A32291A0BC7C Accuracy: -m40
Conclusion: CDDA 99%
Signature: 846C41C83900B2C3797FEF621D6B4B642660016D
FILE: 04 - The Who Who Song.flac
Size: 18374943 Hash: 0EF436A18CB6D6369E118C20CCA7165C Accuracy: -m40
Conclusion: CDDA 99%
Signature: B5ABA7994D2294CF25CA31B2D126D82EAAFE376B
FILE: 05 - I've Lost You.flac
Size: 16893732 Hash: C04147EE9FF4FA0F7206A3214EA3D278 Accuracy: -m40
Conclusion: CDDA 43%
Signature: B9581C910DDB2A7CB60249B3C766D22B5BDDC581
FILE: 06 - A Woman Needs To Be Loved.flac
Size: 16809095 Hash: C11A53BBF84BE18923739032D914B670 Accuracy: -m40
Conclusion: CDDA 100%
Signature: 200EF6917CE13AE8B38A7697572076880AB75BE4
FILE: 07 - Just Be Sincere.flac
Size: 17762024 Hash: E00FB793224FF243CAC0D87E53A63BC4 Accuracy: -m40
Conclusion: CDDA 100%
Signature: AF84C38822DF12BE30989A30CE4C7963288058F3
FILE: 08 - I Don't Want To Lose You.flac
Size: 18763435 Hash: 4DE4969F83884FF018611D39EC42D183 Accuracy: -m40
Conclusion: CDDA 100%
Signature: 3DE593F77B5A9FD126B0C1948EF07E0F13614314
FILE: 10 - I'm The One To Do It.flac
Size: 15639088 Hash: A941B81E3C49FD716A0762F6A72A97BF Accuracy: -m40
Conclusion: CDDA 58%
Signature: 53EB7B8C949E56D370C785EE9EBAC68D5F4F34E8
FILE: 09 - Whispers (Gettin' Louder).flac
Size: 14648797 Hash: 560A113780E0C5C3E38C4B583C93072C Accuracy: -m40
Conclusion: CDDA 100%
Signature: DD4F88F1C72E70335FC48D5C6D3B730A939607E1
FILE: 11 - You Brought About A Change In Me.flac
Size: 18288548 Hash: 2C7FEDC606C343B93910DC315C20B85E Accuracy: -m40
Conclusion: CDDA 100%
Signature: 6AC351781A56CE2CA2DEF3836BFEF104210D0C07
FILE: 12 - I Was Made To Love Her.flac
Size: 19017603 Hash: 2C9444BAED5F80EB61A0AAD08AA57ED0 Accuracy: -m40
Conclusion: CDDA 100%
Signature: FE05A20A832426E62792BF64C4A6D3715C1A0E7E
FILE: 14 - You Left The Fire Burning.flac
Size: 18478962 Hash: 494E3A16E322CE779BB29D1FDCB6B8A3 Accuracy: -m40
Conclusion: CDDA 99%
Signature: E09569EB537E261CEA637F06A7249FC48922CB63
FILE: 13 - Think About The Good Times.flac
Size: 22498241 Hash: D574CCCAF5E00E8B875A37EC64D7261D Accuracy: -m40
Conclusion: CDDA 100%
Signature: 915A195211F18F09E6A1FDC281B5D777ED2D1494
FILE: 15 - Love Uprising.flac
Size: 18896616 Hash: D01EEAA5AB2200D19D1A194366CBB33D Accuracy: -m40
Conclusion: CDDA 100%
Signature: 0A6EF48CF4D87D2814EAC565515873E75E91EE05
FILE: 16 - This Love Is Real.flac
Size: 20363574 Hash: E1C70755238D12DE95069489A8412058 Accuracy: -m40
Conclusion: CDDA 100%
Signature: C195D05AA4C42EF8D6B6C819FAEE57CC592F1387
FILE: 18 - Hard To Get A Thing Called Love.flac
Size: 16804228 Hash: CE3C33DA99D3ABC49BAF308461F8952C Accuracy: -m40
Conclusion: CDDA 100%
Signature: 1CEC945E10A1F5E54C0FC2193E139BE1C0CCE4AF
FILE: 17 - You Got Me Walking.flac
Size: 18935942 Hash: 7C523047982F13953E5A6D6C16067F9B Accuracy: -m40
Conclusion: CDDA 100%
Signature: 0B5CC5E3115035C8B47E79520B2E4A84775105D0
FILE: 19 - Beautiful Day.flac
Size: 25101805 Hash: 2D792A4ED54A1D2B4A2DF4FF3AD392E5 Accuracy: -m40
Conclusion: CDDA 100%
Signature: 43CCBF75F783A9546B32FEE2112C47D5A5A7E066
FILE: 20 - Because Of You.flac
Size: 24322971 Hash: E12FC76C499A3A5842968C7FE1BDBC76 Accuracy: -m40
Conclusion: CDDA 100%
Signature: BF6504699C4BF4D540EEDB66A906DCA3DA627EBC
 
Disc 2
-----------------------
DON'T MODIFY THIS FILE
-----------------------
PERFORMER: auCDtect Task Manager, ver. 1.0.0 Stable build 1.0.0.0
Copyright (c) 2008, 2009 y-soft. All rights reserved
http://y-soft.110mb.com
ANALYZER: auCDtect: CD records authenticity detector, version 0.8.2
Copyright (c) 2004 Oleg Berngardt. All rights reserved.
Copyright (c) 2004 Alexander Djourik. All rights reserved.
FILE: 01 - Reet Petite.flac
Size: 10842060 Hash: 595DDDE2F036F158B536637A19D3C517 Accuracy: -m40
Conclusion: CDDA 100%
Signature: D1BC6E8105676E3773AB3950455E24FF5DEC92A9
FILE: 02 - My Tale Of Woe.flac
Size: 11311084 Hash: DCAD54B911B6666DCC32D895CCC3EBFC Accuracy: -m40
Conclusion: CDDA 100%
Signature: 2E0C76A48D5992AE8CB9CFAC7F43112348E46301
FILE: 03 - Joshua Fit The Battle Of Jericho.flac
Size: 15800215 Hash: 189D82333449CB909AFE94848300E90E Accuracy: -m40
Conclusion: CDDA 100%
Signature: B5EC1E1CB8EFBE56BE11E71C7F5DAC0BA6927E59
FILE: 04 - Danny Boy.flac
Size: 27050253 Hash: 7AE7703E385FEDD2D0A436D5BDC6859B Accuracy: -m40
Conclusion: CDDA 100%
Signature: 2AE2E6B2DACE11B813AE19CDDCC67D161EA79AE8
FILE: 06 - Soul Time.flac
Size: 16407066 Hash: 4E9266AA50393AFBC6E9940EAAA3F3BB Accuracy: -m40
Conclusion: CDDA 100%
Signature: F6E44B269160C725DE1C886943DC52DD91ABE8FC
FILE: 05 - No Pity.flac
Size: 16204811 Hash: DE1D65E4A1E6C1C506D4955F219AA6BD Accuracy: -m40
Conclusion: CDDA 100%
Signature: 0BF3169C626A949217C12B2074E87110B9EE65AE
FILE: 07 - Stop Lying.flac
Size: 14296643 Hash: D91B72AC6C82D09E055338C69EDED1B9 Accuracy: -m40
Conclusion: CDDA 100%
Signature: CC3B6CA7DE85A3771F70556F9F76D544D60BD802
FILE: 08 - Brand New Thing (Pt.2).flac
Size: 17681556 Hash: 89B918522561399ACAB0F97C02AE52D0 Accuracy: -m40
Conclusion: CDDA 100%
Signature: 31B925B1D64BB65889D1E70B3E307552479E1D62
FILE: 10 - Since You Showed Me How To Be Happy.flac
Size: 19762995 Hash: 51661D49FDF410073FBF52BC4412080C Accuracy: -m40
Conclusion: CDDA 100%
Signature: A9CB0851DCA5C379C3D0B992322459EE39BFFC97
FILE: 09 - Soul Galore.flac
Size: 19071252 Hash: B67770E11865749851773AEEBEFBEF56 Accuracy: -m40
Conclusion: CDDA 100%
Signature: 2007D6A1CCB0819BF1F38A265099167B91C6A040
FILE: 11 - You Can Count On Me.flac
Size: 15612294 Hash: 02776CFC7C6682F4175EA54B4C3B6534 Accuracy: -m40
Conclusion: CDDA 100%
Signature: 893B71D3BD288CCA6D706D74A652986DC5C59E29
FILE: 12 - Think Twice.flac
Size: 17617132 Hash: B2B8A08AFED021D45CA4F28F2D7F78A8 Accuracy: -m40
Conclusion: CDDA 100%
Signature: A6BF08FCB4F3610E6C07999B69D635CC97309D00
FILE: 14 - For Your Precious Love.flac
Size: 15683698 Hash: D7AAC62FC28B5945D7F2C73C2E89BF5B Accuracy: -m40
Conclusion: CDDA 100%
Signature: D1D205F18E53C13C7A392289D0B1033435FAF977
FILE: 13 - Haunted House.flac
Size: 15178067 Hash: E606BB46E6989BCBA7BF96730A56B539 Accuracy: -m40
Conclusion: CDDA 100%
Signature: CD937E56B3E07EB28054A1C287033FD60079DE73
FILE: 15 - Who Can I Turn To.flac
Size: 16397032 Hash: B6B2CF8B1B508CD116D7DB9CFA7079CD Accuracy: -m40
Conclusion: CDDA 100%
Signature: 032AD0CEF3F930BBEBC75352480F109CC798A508
FILE: 16 - Nobody But You.flac
Size: 20510382 Hash: 91F3550C530CE80E0A20EB64B0D72C83 Accuracy: -m40
Conclusion: CDDA 100%
Signature: B764A69A7B06170EFF321B6E6A6006DEC9AF26D4
FILE: 17 - Just As Soon As The Feeling's Over.flac
Size: 22234109 Hash: 8908C5E84F5C1A50358B9CFB43123E13 Accuracy: -m40
Conclusion: CDDA 100%
Signature: 49DDDB2CAD73FE8A74726BD528A2F78A0529510F
FILE: 18 - Don't Burn No Bridges.flac
Size: 24232771 Hash: 2FC7C8F58B8FB9008A795E0434B2C8B0 Accuracy: -m40
Conclusion: CDDA 100%
Signature: E4F62002278513AA8B47D4D541653F4B7C75A781
FILE: 19 - You're The Song I Can't Stop Singing.flac
Size: 19926302 Hash: ED6C3A72C488D7DBB18D2243FBCF232A Accuracy: -m40
Conclusion: CDDA 100%
Signature: D9FE0F2972CAA59C45A977E8C9946F59E47BD395
FILE: 20 - I've Learned About Life.flac
Size: 21704066 Hash: DF18355956429AB021E9017F94701F4B Accuracy: -m40
Conclusion: CDDA 100%
Signature: D9ADD5A4BDF9DCCED9682E33CD485E1EB4DFE8FC
Источник: [релизер: garet jax]
Доп. информация: сканы присутствуют
Мои раздачи на трекере / My other uploads
Приватный:
Нет (DHT включён)
Размер:
709.85 Мб (744,329,616 байт) » файлов: 76
Участники:
0 раздают, 0 качают (0 участников всего)
Внешние участники:
2 раздают, 1 качают (3 участников всего) [ Обновить ]
Нет сидеров - пишите личное сообщение M0p94ok. Не нравятся торренты? Участники группы Pro-jazz Club могут заказать прямую ссылку на скачивание из облака.
No seeders - write a personal message to M0p94ok. Don't like torrents? Members of Pro-jazz Club group can order a direct download link from the cloud.
03:43
33
Нет комментариев. Ваш будет первым!