Поиск

(Jazz / Soul / R&B) Aaron Neville - The Grand Tour - 1993, FLAC (image+.cue), lossless

Треклист:
Aaron Neville - The Grand Tour
Жанр: Jazz / Soul / R&B
Год выпуска диска: 1993
Производитель диска: A&M, USA
Аудио кодек: FLAC
Тип рипа: image+.cue
Битрейт аудио: lossless
Продолжительность: 53:21
Трэклист:
01. Don't Take Away My Heaven
02. I Owe You One
03. Don't Fall Apart On Me Tonight
04. My Brother, My Brother
05. Betcha By Golly, Wow
06. Song Of Bernadette
07. You Never Can Tell
08. The Bells
09. These Foolish Things
10. The Roadie Song
11. Ain't No Way
12. The Grand Tour
13. The Lord's Prayer
 
Log EAC
Exact Audio Copy V0.99 prebeta 5 from 4. May 2009
Отчёт EAC об извлечении, выполненном 24. марта 2010, 19:48
Aaron Neville / k-The Grand Tour
Дисковод: MATSHITAUJDA755 DVD/CDRW Adapter: 1 ID: 0
Режим чтения : Достоверность
Использование точного потока : Да
Отключение кэша аудио : Да
Использование указателей C2 : Нет
Коррекция смещения при чтении : 102
Способность читать области Lead-in и Lead-out : Нет
Заполнение пропущенных сэмплов тишиной : Да
Удаление блоков с тишиной в начале и конце : Нет
При вычислениях CRC использовались нулевые сэмплы : Да
Интерфейс : Встроенный Win32-интерфейс для Win NT/2000
Выходной формат : Пользовательский кодировщик
Выбранный битрейт : 768 kBit/s
Качество : Высокий
Добавление ID3-тэга : Нет
Утилита сжатия : C:\Program Files\Exact Audio Copy\FLAC\FLAC.EXE
Дополнительные параметры : -8 -V %s
TOC извлечённого CD
Трек | Старт | Длительность | Начальный сектор | Конечный сектор
---------------------------------------------------------------------
1 | 0:00.33 | 4:38.35 | 33 | 20917
2 | 4:38.68 | 5:33.07 | 20918 | 45899
3 | 10:12.00 | 4:24.60 | 45900 | 65759
4 | 14:36.60 | 4:59.28 | 65760 | 88212
5 | 19:36.13 | 3:56.17 | 88213 | 105929
6 | 23:32.30 | 4:04.65 | 105930 | 124294
7 | 27:37.20 | 2:54.10 | 124295 | 137354
8 | 30:31.30 | 3:22.48 | 137355 | 152552
9 | 33:54.03 | 4:23.20 | 152553 | 172297
10 | 38:17.23 | 4:41.67 | 172298 | 193439
11 | 42:59.15 | 5:01.45 | 193440 | 216059
12 | 48:00.60 | 3:22.30 | 216060 | 231239
13 | 51:23.15 | 1:58.35 | 231240 | 240124
Характеристики диапазона извлечения и сообщения об ошибках
Выбранный диапазон
Имя файла G:\FLACи\Aaron Neville - The Grand Tour\Aaron Neville - k-The Grand Tour.wav
Пиковый уровень 97.2 %
Качество диапазона 100.0 %
CRC теста AF0E01F0
CRC копии AF0E01F0
Копирование... OK
Ошибок не произошло
AccurateRip: сводка
Трек 1 точность не определена (достоверность 23) [D0A374A5], AccurateRip вернул [79CB1675]
Трек 2 точность не определена (достоверность 23) [FF14F128], AccurateRip вернул [CF7BFBA7]
Трек 3 точность не определена (достоверность 23) [18951E78], AccurateRip вернул [5712B872]
Трек 4 точность не определена (достоверность 23) [0676B726], AccurateRip вернул [FB61A394]
Трек 5 точность не определена (достоверность 23) [0470A5FC], AccurateRip вернул [9EB81730]
Трек 6 точность не определена (достоверность 23) [8C23B7DA], AccurateRip вернул [712D1C4B]
Трек 7 точность не определена (достоверность 23) [4B6BF80D], AccurateRip вернул [B11974DB]
Трек 8 точность не определена (достоверность 23) [C6A0416E], AccurateRip вернул [9FA083EC]
Трек 9 точность не определена (достоверность 23) [9BD2C880], AccurateRip вернул [29DE5434]
Трек 10 точность не определена (достоверность 23) [F39A0F6D], AccurateRip вернул [82635E86]
Трек 11 точность не определена (достоверность 23) [8D544242], AccurateRip вернул [E822BEBE]
Трек 12 точность не определена (достоверность 23) [7048F727], AccurateRip вернул [58F8386A]
Трек 13 точность не определена (достоверность 21) [0542FC1E], AccurateRip вернул [8126F0BF]
Ни один трек не прошёл проверки на точность
В вашей базе может быть иной вариант штамповки диска
Конец отчёта
 
Tau Analyzer


Рип с собственного диска. Сканы 600 dpi
Приватный:
Нет (DHT включён)
Размер:
323.25 Мб (338,947,377 байт) » файлов: 7
Участники:
0 раздают, 0 качают (0 участников всего)
Внешние участники:
3 раздают, 1 качают (4 участников всего) [ Обновить ]
Никого нет на раздаче - пишите личное сообщение M0p94ok
No seeders - write personal message to M0p94ok
03:44
21
Нет комментариев. Ваш будет первым!