Поиск

(Soul Jazz/Funk, R&B, Electronic) Chaka Khan - Original Album Series: 1978-1984 (5CD Box-Set) - 2010, APE (image+.cue), lossless

Треклист:
Chaka Khan - Original Album Series: 1978-1984 (5CD Box-Set)
Жанр: Soul Jazz/Funk, R&B, Electronic
Год выпуска Бокс-Сета: 2010, February, 26
CD Catalogue #: WB/Rhino 8122 79836 0
EAN: 0081227983604
Производитель диска: EU
Лэйбл: Rhino/Warner Brosers Records
Аудио кодек: APE
Тип рипа: image+.cue
Битрейт аудио: lossless
Продолжительность: время звучания альбомов указано в трэклистах
Источник рипа: лично сама
Доп. информация:
Буквально месяц назад вышедший в Европе Box-Set Chaka Khan - Original Album Series, включает 5 первых сольных альбомов этой замечательной исполнительницы с 1978 по 1984 годы. Среди этой пятёрки, впервые выпущенный на CD (кроме Японии его ещё не выпускала ни одна страна) альбом 1982 года "Chaka Khan". Все 5 альбомов в данном Бокс-Сете оформлены в стиле Mini LP - они имеют оригинальные обложки и выполнены в том же стиле, что и на момент выпуска на виниле.
 
Краткая творческая биография
Певица, композитор Чака Хан (настоящее имя Иветт Мэри Стивенc) родилась 23 марта 1953 года в США. В 11 лет Чака Хан уже организовала свою первую группу (Crystalettes), с которой много гастролировала в Чикаго и его пригородах. К 16 годам она возглавила Союз чернокожих студентов и присоединилась к труппе Африканского драматического театра (куда также входила известная певица Мэри Уэллс). В 1969 году певица стала членом группы Life, позже сменившей название на Babysitters, - группа работала в стиле танцевального соул, который принес музыкантам популярность. В 1972 году Чака Хан познакомилась с Кевином Мерфи (он играл в группе American Breed) и Андре Фишером - они организовали группу Rufus, вскоре ставшую популярной во всем мире. Rufus играли соул с заметными элементами фанка - такие композиции, как «Tell Me Something Good» (1974), «You Got Love» (1974), «Once You Get Started» (1975) и «Sweet Thing» (1975), входили в Top 10 американских хит-парадов.
В 1978 году Чака Хан начала сольную карьеру, ее дебютный альбом «Chaka» продюсировал Ариф Мардин, в записи принимали участие музыканты группы Average White Band и гитарист Rufus Тони Мэйден - диск стал «золотым», а композиция «I'm Every Woman», которую написали Эштон и Симпсон, вошла в хит-парад на 21-е место. Продолжая работать с Rufus, Чака Хан собирает собственную группу, с которой много гастролирует; выходят новые сольные пластинки певицы. Чаку Хан приглашают для записи альбомов таких столпов рока, как Рай Кудер, Рик Уэйкман, Чик Кориа, Джо Хендерсон и Стенли Кларк. В 1984 году композиция «I Feel For You» (автор - Принс) занимает первое место в таблице популярности США. Сегодня Чака Хан считается ведущей певицей, работающей в жанре танцевальной музыки.
Альбомы:
 
Chaka (1978)
Chaka Khan - Chaka - 1978
Год выхода альбома: 1978 [LP BSK 3245, USA]
Продолжительность: 00:43:31
Tracklist:
01. I'm Every Woman (4:08)
02. Love Has Fallen On Me (4:55)
03. Roll Me Through The Rushes (4:44)
04. Sleep On It (4:21)
05. Life Is A Dance (4:23)
06. We Got The Love (3:29)
07. Some Love (5:52)
08. A Woman In A Man's World (3:58)
09. The Message In The Middle Of The Bottom (4:17)
10. I Was Made To Love Him (3:24)
Concertmaster - Gene Orloff
Drums - Steve Ferrone
Engineer [Additional Recording] - Gene Paul
Engineer [Additional Recording], Remix - Lew Hahn
Engineer [Assistant] - Bill Dooley, Michael O'Reilly, Randy Mason, Sheridan Eldridge, Anthony D'Amico
Engineer [Recording] - James Douglass*
Producer, Arranged By [Brass, Strings, Woodwind] - Arif Mardin
 
Naughty (1980)
Chaka Khan - Naughty - 1980
Год выхода альбома: 1980 [LP BSK 3385, USA]
Продолжительность: 00:40:15
Tracklist:
01. Clouds (4:29)
02. Get Ready, Get Set (3:44)
03. Move Me No Mountain (4:16)
04. Nothing's Gonna Take You Away (3:42)
05. So Naughty (3:58)
06. Too Much Love (3:54)
07. All Nights's All Right (4:26)
08. What You Did (3:59)
09. Papillon (aka Hot Butterfly) (4:11)
10. Our Love's In Danger (3:36)
Concertmaster - Gene Orloff
Drums - Steve Ferrone
Engineer [Assistant] - Michael O'Reilly
Mastered By - George Marino
Producer, Arranged By [Horns, Strings] - Arif Mardin
Recorded By, Mixed By - Lew Hahn
 
What Cha' Gonna Do For Me (1981)
Chaka Khan - What Cha' Gonna Do For Me - 1981
Год выхода альбома: 1981 [LP HS 3526, USA]
Продолжительность: 00:42:04
Tracklist:
01. We Can Work It Out (3:43)
02. What Cha' Gonna Do For Me (3:54)
03. I Know You, I Live You (4:29)
04. Any Old Sunday (3:37)
05. We Got Each Other (3:56)
06. And The Melody Still Lingers On (Night In Tunisia) (5:04)
07. Night Moods (4:21)
08. Heed The Warning (4:32)
09. Father He Said (3:52)
10. Fate (3:14)
11. I Know You, I Live You (Reprise) (1:22)
Bass - Anthony Jackson
Drums - Steve Ferrone
Engineer [Assistant] - Bob Warner , David Leonard , David Richards , Michael O'Reilly , Wayne Lewis
Guitar - David Williams (4) , Hamish Stuart
Keyboards, Flute, Saxophone, Synthesizer - Larry Williams
Lead Vocals, Backing Vocals - Chaka Khan
Mastered By - George Marino
Producer - Arif Mardin
Producer [Coordinator] - Chrissy Allerdings , Frank DeCaro
Recorded By, Mixed By - Lew Hahn
 
Chaka Khan (1982)
Chaka Khan - Chaka Khan - 1982
Год выхода альбома: 1982 [LP 1-23729, USA]
Продолжительность: 00:39:50
Tracklist:
01. "Tearin' It Up" (6:42)
02. "Slow Dancin'" (feat. Rick James) (5:25)
03. "Best In The West" (4:03)
04. "Got To Be There" (3:52)
05. Be Bop Medley: "Hot House" / "East Of Suez (Come On Sailor)" / "Epistrophy (I Wanna Play)" / "Yardbird Suite" / "Con Alma" / "Giant Steps" (5:25)
06. "Twisted" (4:20)
07. "So Not To Worry" (5:00)
08. "Pass It On (A Sure Thing) (Pasa Lo Esta Seguro)" (5:03)
"Chaka Khan" - это 4-ый сольный альбом американской исполнительницы в стиле R&B/Funk Chaka Khan, вышедший на лэйбле Warner Bros. Records в 1982 году. С данного альбома было выпущено 2 сингла: "Got to Be There" (места в чартах - US Pop #67, US R&B #5 - прим.) - это кавер-версия песни 1971 года Майкла Джексона/Michael Jackson и "Tearin' It Up" (US R&B #48). Один из треков альбома, "Slow Dancin'" представляет собой фанковый балладный дуэт с Риком Джэймсом/Rick James. В чартах Billboard, пластинка достигла #5 среди "чёрных альбомов" (Black Albums Chart) и #52 в чарте альбомов в стиле поп (Pop Albums Chart). Композиция "Bebop Medley" принесла продюсеру альбома Arif Mardin и Khan награду Grammy в 1984-ом в категории "Best Vocal Arrangement For Two Or More Voices".
Долгое время данный альбом оставался до сих пор невыпущенным на компакт-диске и в Соединенных Штатах и в Европе, и был доступен только как импорт из Японии. Последняя дата выхода японского CD WPCR-318 - 25 апреля 1995 года. Столь давний выход и ограниченный тираж обусловили тот факт, что данный альбом считался мега-раритетом среди поклонников творчества Чаки Хан - его цена на Амазоне и аукционе ebay доходила(ит) до 200$ и выше.
 
I Feel For You (1984)
Chaka Khan - I Feel For You - 1984
Год выхода альбома: 1984 [LP 7599-25162-1, USA]
Продолжительность: 00:47:01
Tracklist:
01. This Is My Night (4:42)
02. Stronger Than Before (4:21)
03. My Love Is Alive (4:42)
04. Eye To Eye (4:38)
05. La Flamme (4:27)
06. I Feel For You (5:46)
07. Hold Her (5:16)
08. Through The Fire (4:47)
09. Caught In The Act (3:47)
10. Chinatown (4:35)
Artwork By [Design] - Kav DeLuxe
Artwork By [Illustrations] - Anne Field
Artwork By [Lp Art Direction] - Simon Levy
Mastered By [Original Lp] - George Marino
Рип фирменного Бокс-Сета из моей коллекции, сканы обложек и дисков (600 dpi) включены в раздачу.
 
Отчёты EAC
 
Chaka (1978)
Exact Audio Copy V0.99 prebeta 4 from 23. January 2008
EAC extraction logfile from 11. March 2010, 22:14
Chaka Khan / Chaka
Used drive : ATAPI DVD DW 8X16X8X16 Adapter: 0 ID: 2
Read mode : Secure
Utilize accurate stream : Yes
Defeat audio cache : Yes
Make use of C2 pointers : No
Read offset correction : 618
Overread into Lead-In and Lead-Out : No
Fill up missing offset samples with silence : Yes
Delete leading and trailing silent blocks : No
Null samples used in CRC calculations : Yes
Used interface : Native Win32 interface for Win NT & 2000
Used output format : Internal WAV Routines
Sample format : 44.100 Hz; 16 Bit; Stereo
TOC of the extracted CD
Track | Start | Length | Start sector | End sector
---------------------------------------------------------
1 | 0:00.00 | 4:08.05 | 0 | 18604
2 | 4:08.05 | 4:55.22 | 18605 | 40751
3 | 9:03.27 | 4:44.10 | 40752 | 62061
4 | 13:47.37 | 4:21.23 | 62062 | 81659
5 | 18:08.60 | 4:23.55 | 81660 | 101439
6 | 22:32.40 | 3:29.22 | 101440 | 117136
7 | 26:01.62 | 5:52.63 | 117137 | 143599
8 | 31:54.50 | 3:58.57 | 143600 | 161506
9 | 35:53.32 | 4:17.63 | 161507 | 180844
10 | 40:11.20 | 3:24.42 | 180845 | 196186
Range status and errors
Selected range
Filename C:\BlondStyle\Chaka Khan - Original Album Series (5CD Box-Set) - 2009 (APE)\Chaka - 1978\Chaka Khan - Chaka.wav
Peak level 94.7 %
Range quality 100.0 %
Test CRC B0C61154
Copy CRC B0C61154
Copy OK
No errors occurred
AccurateRip summary
Track 1 accurately ripped (confidence 7) [76E7DB87]
Track 2 accurately ripped (confidence 6) [550E8ACA]
Track 3 accurately ripped (confidence 7) [312E0AAC]
Track 4 accurately ripped (confidence 7) [1BE515C8]
Track 5 accurately ripped (confidence 7) [CB03F93C]
Track 6 accurately ripped (confidence 7) [6C72218B]
Track 7 accurately ripped (confidence 7) [0215D470]
Track 8 accurately ripped (confidence 7) [D575E786]
Track 9 accurately ripped (confidence 7) [626076D0]
Track 10 accurately ripped (confidence 7) [E02321D7]
All tracks accurately ripped
End of status report
 
Naughty (1980)
Exact Audio Copy V0.99 prebeta 4 from 23. January 2008
EAC extraction logfile from 11. March 2010, 23:15
Chaka Khan / Naughty
Used drive : ATAPI DVD DW 8X16X8X16 Adapter: 0 ID: 2
Read mode : Secure
Utilize accurate stream : Yes
Defeat audio cache : Yes
Make use of C2 pointers : No
Read offset correction : 618
Overread into Lead-In and Lead-Out : No
Fill up missing offset samples with silence : Yes
Delete leading and trailing silent blocks : No
Null samples used in CRC calculations : Yes
Used interface : Native Win32 interface for Win NT & 2000
Used output format : Internal WAV Routines
Sample format : 44.100 Hz; 16 Bit; Stereo
TOC of the extracted CD
Track | Start | Length | Start sector | End sector
---------------------------------------------------------
1 | 0:00.32 | 4:29.38 | 32 | 20244
2 | 4:29.70 | 3:44.62 | 20245 | 37106
3 | 8:14.57 | 4:16.20 | 37107 | 56326
4 | 12:31.02 | 3:42.08 | 56327 | 72984
5 | 16:13.10 | 3:58.72 | 72985 | 90906
6 | 20:12.07 | 3:54.73 | 90907 | 108529
7 | 24:07.05 | 4:26.55 | 108530 | 128534
8 | 28:33.60 | 3:59.32 | 128535 | 146491
9 | 32:33.17 | 4:11.18 | 146492 | 165334
10 | 36:44.35 | 3:36.40 | 165335 | 181574
Range status and errors
Selected range
Filename C:\BlondStyle\Chaka Khan - Original Album Series (5CD Box-Set) - 2009 (APE)\Naughty - 1980\Chaka Khan - Naughty.wav
Peak level 100.0 %
Range quality 100.0 %
Test CRC B7380AC3
Copy CRC B7380AC3
Copy OK
No errors occurred
AccurateRip summary
Track 1 accurately ripped (confidence 2) [5A31C0B4]
Track 2 accurately ripped (confidence 2) [94105E67]
Track 3 accurately ripped (confidence 2) [BA2DF850]
Track 4 accurately ripped (confidence 2) [D15B12C7]
Track 5 accurately ripped (confidence 2) [45A62302]
Track 6 accurately ripped (confidence 2) [965132AD]
Track 7 accurately ripped (confidence 2) [606AC97A]
Track 8 accurately ripped (confidence 2) [1AB2E392]
Track 9 accurately ripped (confidence 2) [2D83F1DA]
Track 10 accurately ripped (confidence 2) [153D4E04]
All tracks accurately ripped
End of status report
 
What Cha' Gonna Do For Me (1981)
Exact Audio Copy V0.99 prebeta 4 from 23. January 2008
EAC extraction logfile from 11. March 2010, 23:50
Chaka Khan / What Cha' Gonna Do For Me
Used drive : ATAPI DVD DW 8X16X8X16 Adapter: 0 ID: 2
Read mode : Secure
Utilize accurate stream : Yes
Defeat audio cache : Yes
Make use of C2 pointers : No
Read offset correction : 618
Overread into Lead-In and Lead-Out : No
Fill up missing offset samples with silence : Yes
Delete leading and trailing silent blocks : No
Null samples used in CRC calculations : Yes
Used interface : Native Win32 interface for Win NT & 2000
Used output format : Internal WAV Routines
Sample format : 44.100 Hz; 16 Bit; Stereo
TOC of the extracted CD
Track | Start | Length | Start sector | End sector
---------------------------------------------------------
1 | 0:00.00 | 3:43.50 | 0 | 16774
2 | 3:43.50 | 3:54.20 | 16775 | 34344
3 | 7:37.70 | 4:29.70 | 34345 | 54589
4 | 12:07.65 | 3:37.40 | 54590 | 70904
5 | 15:45.30 | 3:56.07 | 70905 | 88611
6 | 19:41.37 | 5:04.10 | 88612 | 111421
7 | 24:45.47 | 4:21.50 | 111422 | 131046
8 | 29:07.22 | 4:32.55 | 131047 | 151501
9 | 33:40.02 | 3:52.38 | 151502 | 168939
10 | 37:32.40 | 3:14.37 | 168940 | 183526
11 | 40:47.02 | 1:22.13 | 183527 | 189689
Range status and errors
Selected range
Filename C:\BlondStyle\Chaka Khan - Original Album Series (5CD Box-Set) - 2009 (APE)\What Cha' Gonna Do For Me - 1981\Chaka Khan - What Cha' Gonna Do For Me.wav
Peak level 92.6 %
Range quality 100.0 %
Test CRC 49B7117F
Copy CRC 49B7117F
Copy OK
No errors occurred
AccurateRip summary
Track 1 accurately ripped (confidence 5) [B9974A35]
Track 2 accurately ripped (confidence 5) [34E12D5E]
Track 3 accurately ripped (confidence 5) [0FE1B688]
Track 4 accurately ripped (confidence 5) [1A8B3FCD]
Track 5 accurately ripped (confidence 5) [6E358532]
Track 6 accurately ripped (confidence 5) [F69AC694]
Track 7 accurately ripped (confidence 5) [E410F24D]
Track 8 accurately ripped (confidence 5) [C33E438D]
Track 9 accurately ripped (confidence 5) [662EBE21]
Track 10 accurately ripped (confidence 5) [BEA546DD]
Track 11 accurately ripped (confidence 5) [76BFB63A]
All tracks accurately ripped
End of status report
 
Chaka Khan (1982)
Exact Audio Copy V0.99 prebeta 4 from 23. January 2008
EAC extraction logfile from 12. March 2010, 1:18
Chaka Khan / Chaka Khan
Used drive : ATAPI DVD DW 8X16X8X16 Adapter: 0 ID: 2
Read mode : Secure
Utilize accurate stream : Yes
Defeat audio cache : Yes
Make use of C2 pointers : No
Read offset correction : 618
Overread into Lead-In and Lead-Out : No
Fill up missing offset samples with silence : Yes
Delete leading and trailing silent blocks : No
Null samples used in CRC calculations : Yes
Used interface : Native Win32 interface for Win NT & 2000
Used output format : Internal WAV Routines
Sample format : 44.100 Hz; 16 Bit; Stereo
TOC of the extracted CD
Track | Start | Length | Start sector | End sector
---------------------------------------------------------
1 | 0:00.00 | 6:42.07 | 0 | 30156
2 | 6:42.07 | 5:25.20 | 30157 | 54551
3 | 12:07.27 | 4:03.40 | 54552 | 72816
4 | 16:10.67 | 3:52.53 | 72817 | 90269
5 | 20:03.45 | 5:25.50 | 90270 | 114694
6 | 25:29.20 | 4:20.35 | 114695 | 134229
7 | 29:49.55 | 5:00.17 | 134230 | 156746
8 | 34:49.72 | 5:03.60 | 156747 | 179531
Range status and errors
Selected range
Filename C:\BlondStyle\Chaka Khan - Original Album Series (5CD Box-Set) - 2009 (APE)\Chaka Khan - 1982\Chaka Khan - Chaka Khan.wav
Peak level 100.0 %
Range quality 100.0 %
Test CRC 030F4360
Copy CRC 030F4360
Copy OK
No errors occurred
AccurateRip summary
Track 1 not present in database
Track 2 not present in database
Track 3 not present in database
Track 4 not present in database
Track 5 not present in database
Track 6 not present in database
Track 7 not present in database
Track 8 not present in database
None of the tracks are present in the AccurateRip database
End of status report
 
I Feel For You (1984)
Exact Audio Copy V0.99 prebeta 4 from 23. January 2008
EAC extraction logfile from 12. March 2010, 1:52
Chaka Khan / I Feel For You
Used drive : ATAPI DVD DW 8X16X8X16 Adapter: 0 ID: 2
Read mode : Secure
Utilize accurate stream : Yes
Defeat audio cache : Yes
Make use of C2 pointers : No
Read offset correction : 618
Overread into Lead-In and Lead-Out : No
Fill up missing offset samples with silence : Yes
Delete leading and trailing silent blocks : No
Null samples used in CRC calculations : Yes
Used interface : Native Win32 interface for Win NT & 2000
Used output format : Internal WAV Routines
Sample format : 44.100 Hz; 16 Bit; Stereo
TOC of the extracted CD
Track | Start | Length | Start sector | End sector
---------------------------------------------------------
1 | 0:00.00 | 4:42.10 | 0 | 21159
2 | 4:42.10 | 4:21.25 | 21160 | 40759
3 | 9:03.35 | 4:42.63 | 40760 | 61972
4 | 13:46.23 | 4:38.67 | 61973 | 82889
5 | 18:25.15 | 4:27.65 | 82890 | 102979
6 | 22:53.05 | 5:46.05 | 102980 | 128934
7 | 28:39.10 | 5:16.10 | 128935 | 152644
8 | 33:55.20 | 4:47.03 | 152645 | 174172
9 | 38:42.23 | 3:47.17 | 174173 | 191214
10 | 42:29.40 | 4:35.48 | 191215 | 211887
Range status and errors
Selected range
Filename C:\BlondStyle\Chaka Khan - Original Album Series (5CD Box-Set) - 2009 (APE)\I Feel For You - 1984\Chaka Khan - I Feel For You.wav
Peak level 100.0 %
Range quality 99.9 %
Test CRC 0E678BD7
Copy CRC 0E678BD7
Copy OK
No errors occurred
AccurateRip summary
Track 1 accurately ripped (confidence 15) [3F0699C2]
Track 2 accurately ripped (confidence 15) [F757AA20]
Track 3 accurately ripped (confidence 14) [0727B9EA]
Track 4 accurately ripped (confidence 15) [57BC60BC]
Track 5 accurately ripped (confidence 15) [A01AFA6F]
Track 6 accurately ripped (confidence 15) [4F1D8694]
Track 7 accurately ripped (confidence 15) [5CAC447A]
Track 8 accurately ripped (confidence 16) [45A5A071]
Track 9 accurately ripped (confidence 15) [062844B4]
Track 10 accurately ripped (confidence 14) [3A5881E4]
All tracks accurately ripped
End of status report
 
Tau Analyzer
 
Chaka (1978)
 
Naughty (1980)
 
What Cha' Gonna Do For Me (1981)
 
Chaka Khan (1982)
 
I Feel For You (1984)
~Не забывайте говорить спасибо!~
Приватный:
Нет (DHT включён)
Размер:
1.34 Гб (1,436,823,692 байт) » файлов: 52
Участники:
0 раздают, 0 качают (0 участников всего)
Внешние участники:
5 раздают, 1 качают (6 участников всего) [ Обновить ]
Никого нет на раздаче - пишите личное сообщение M0p94ok
No seeders - write personal message to M0p94ok
03:45
20
Нет комментариев. Ваш будет первым!