Поиск

(bb - Big Band\Brass Band) Mardi Gras.bb - Supersmell 2000, APE (image+.cue), lossless

Треклист:
Mardi Gras.bb - Supersmell - 2000, APE (image+.cue), lossless +медиа-контент
Жанр:bb - Big Band\ Brass Band
Год выпуска диска: 2000
Производитель диска: Universal Jazz Germany
Аудио кодек: APE
Тип рипа: image+.cue
Битрейт аудио: lossless
Продолжительность: 45:24
Рип собственноручный
Трэклист:
1 Psychoflute 4:12
2 Tijuana 65 0:48
3 Dreamtime In Memphis 5:25
4 Erotic City 3:31
( Written-By - Prince Roger Nelson*)
5 Baby Elephant Walk 2:30
( Written-By - Henry Mancini)
6 The Cape And The Crown (Sha La La) 4:20
7 One More Try 3:32
8 Under Control 2:22
9 No. 9 0:14
10 Meeting Isaac (For Your Love) 3:56
11 Glass Tiger 4:17
12 Riders On The Storm 1:41
( Written-By - Doors, The)
13 Draw Me Something, Mr. Jack Brewer 4:07
14 Sphincterludi 0:48
15 Let It Shine
 
Состав
Vocals & Guitars: Doktor Wenz
Sousaphone: Reverend Krug
Small Drum: Erwin Ditzner
Big Drum: Laurent Leroy
Trumpet: Chris Bishop
Trumpet: Martin Kipper
Baritone Saxophon & Flute: Christl Marley
Tenor Saxophone & Flute: Steffen "La Rose" Weber
Trombone: Frankie Delane
Trombone: Robert "Solomon" Gohring
Trumpet & Flugelhorn: Ralph "Mosch" Himmler
Trombone: Uli "Loose Hip"Roser
Trombone: Chris Perschke
Turntables: DJ Mahmut
На диске имеется интерактивное содержимое (игрулька от MG bb) , для желающих его лицезреть в раздачу помимо
ЕАСовского рипа добавлена папка с медиа-контентом
"EAC files" - 238Мb
"MGBB_SUPERACTIVE" - 177Mb
 
Спецификация MGBB_SUPERACTIVE
Формат: QuickTime
Видео кодек:Cinepack
Аудио кодек:ADPCM
Видео: Разрешение :320x240 : 1 393 Kbps
Аудио: 2 channels , 176.4 Kbps
 
Скриншоты


+cover
 
EAC log
Exact Audio Copy V0.99 prebeta 5 from 4. May 2009
Отчёт EAC об извлечении, выполненном 25. марта 2010, 16:25
Mardi Gras.BB / Super Smell
Дисковод: HL-DT-STDVDRAM GH20NS10 Adapter: 0 ID: 0
Режим чтения : Достоверность
Использование точного потока : Да
Отключение кэша аудио : Да
Использование указателей C2 : Нет
Коррекция смещения при чтении : 667
Способность читать области Lead-in и Lead-out : Нет
Заполнение пропущенных сэмплов тишиной : Да
Удаление блоков с тишиной в начале и конце : Нет
При вычислениях CRC использовались нулевые сэмплы : Да
Интерфейс : Встроенный Win32-интерфейс для Win NT/2000
Выходной формат : Внутренние WAV-операции
Формат сэмплов : 44.100 Гц; 16 бит; стерео
TOC извлечённого CD
Трек | Старт | Длительность | Начальный сектор | Конечный сектор
---------------------------------------------------------------------
1 | 0:00.00 | 4:12.71 | 0 | 18970
2 | 4:12.71 | 0:47.63 | 18971 | 22558
3 | 5:00.59 | 5:24.65 | 22559 | 46923
4 | 10:25.49 | 3:31.16 | 46924 | 62764
5 | 13:56.65 | 2:30.07 | 62765 | 74021
6 | 16:26.72 | 4:19.13 | 74022 | 93459
7 | 20:46.10 | 3:31.66 | 93460 | 109350
8 | 24:18.01 | 2:22.54 | 109351 | 120054
9 | 26:40.55 | 0:13.37 | 120055 | 121066
10 | 26:54.17 | 3:56.23 | 121067 | 138789
11 | 30:50.40 | 4:17.24 | 138790 | 158088
12 | 35:07.64 | 1:40.24 | 158089 | 165612
13 | 36:48.13 | 4:07.29 | 165613 | 184166
14 | 40:55.42 | 0:48.06 | 184167 | 187772
15 | 41:43.48 | 3:40.04 | 187773 | 204276
16 | 47:55.52 | 20:55.09 | 215677 | 309810
Характеристики диапазона извлечения и сообщения об ошибках
Выбранный диапазон
Имя файла E:\Музыка\Записи\Mardi Gras.BB - Super Smell\Mardi Gras.BB - Super Smell.wav
Пиковый уровень 100.0 %
Качество диапазона 100.0 %
CRC копии 725B87B3
Копирование... OK
Ошибок не произошло
AccurateRip: сводка
Трек 1 точное извлечение (доверие 12) [1EEC4D3B]
Трек 2 точное извлечение (доверие 12) [61438719]
Трек 3 точное извлечение (доверие 12) [24AB0F9E]
Трек 4 точное извлечение (доверие 11) [A2060139]
Трек 5 точное извлечение (доверие 12) [A652719C]
Трек 6 точное извлечение (доверие 12) [FD77F057]
Трек 7 точное извлечение (доверие 11) [2D867C4E]
Трек 8 точное извлечение (доверие 12) [55479124]
Трек 9 точное извлечение (доверие 12) [04547682]
Трек 10 точное извлечение (доверие 11) [0E412119]
Трек 11 точное извлечение (доверие 9) [91DEC846]
Трек 12 точное извлечение (доверие 11) [BE9F1B9F]
Трек 13 точное извлечение (доверие 11) [4C64199D]
Трек 14 точное извлечение (доверие 11) [DFE99061]
Трек 15 точное извлечение (доверие 11) [9B836F7D]
Все треки извлечены точно
Конец отчёта
Приватный:
Нет (DHT включён)
Размер:
418.79 Мб (439,134,970 байт) » файлов: 70
Участники:
0 раздают, 0 качают (0 участников всего)
Внешние участники:
1 раздают, 0 качают (1 участников всего) [ Обновить ]
Нет сидеров - пишите личное сообщение M0p94ok. Не нравятся торренты? Участники группы Pro-jazz Club могут заказать прямую ссылку на скачивание из облака.
No seeders - write a personal message to M0p94ok. Don't like torrents? Members of Pro-jazz Club group can order a direct download link from the cloud.
03:45
26
Нет комментариев. Ваш будет первым!