Поиск

(Soul/Smooth Soul/Quiet Storm) Bobby Womack - The Poet (1981) - 1999, FLAC (image+.cue), lossless

(Soul/Smooth Soul/Quiet Storm) Bobby Womack - The Poet (1981) - 1999, FLAC (image+.cue), lossless
Треклист:
Bobby Womack - The Poet (1981)
Жанр: Soul/Smooth Soul/Quiet Storm
Год выпуска диска: 1999
Производитель диска: Англия (Sequel/Castle)
Аудио кодек: FLAC
Тип рипа: image+.cue
Битрейт аудио: lossless
Продолжительность: 47:21
Трэклист:
01. So many sides of you 03:46
02. Lay your lovin on me 04:04
03. Secrets 03:54
04. Just my imagination 05:07
05. Stand up 03:32
06. Games 06:53
07. If you think youre lonely now 05:32
08. Where do we go from here 06:43
09. Games (acoustic) 04:42
10. Secrets (acoustic) 03:05
 
отчёт ЕАС
Exact Audio Copy V0.99 prebeta 4 from 23. January 2008
Отчёт EAC об извлечении, выполненном 13. марта 2010, 0:14
Bobby Womack / The Poet
Дисковод: Optiarc DVD RW AD-7203S Adapter: 1 ID: 1
Режим чтения : Достоверность
Использование точного потока : Да
Отключение кэша аудио : Да
Использование указателей C2 : Нет
Коррекция смещения при чтении : 48
Способность читать области Lead-in и Lead-out : Нет
Заполнение пропущенных сэмплов тишиной : Да
Удаление блоков с тишиной в начале и конце : Нет
При вычислениях CRC использовались нулевые сэмплы : Да
Интерфейс : Встроенный Win32-интерфейс для Win NT/2000
Выходной формат : Пользовательский кодировщик
Выбранный битрейт : 1024 kBit/s
Качество : Высокий
Добавление ID3-тэга : Нет
Утилита сжатия : C:\Program Files\Exact Audio Copy\Flac\flac.exe
Дополнительные параметры : -V -8 -T "artist=%a" -T "title=%t" -T "album=%g" -T "date=%y" -T "tracknumber=%n" -T "genre=%m" %s
TOC извлечённого CD
Трек | Старт | Длительность | Начальный сектор | Конечный сектор
---------------------------------------------------------------------
1 | 0:00.00 | 3:46.42 | 0 | 16991
2 | 3:46.42 | 4:04.05 | 16992 | 35296
3 | 7:50.47 | 3:54.28 | 35297 | 52874
4 | 11:45.00 | 5:07.17 | 52875 | 75916
5 | 16:52.17 | 3:32.28 | 75917 | 91844
6 | 20:24.45 | 6:53.15 | 91845 | 122834
7 | 27:17.60 | 5:32.45 | 122835 | 147779
8 | 32:50.30 | 6:43.00 | 147780 | 178004
9 | 39:33.30 | 4:42.07 | 178005 | 199161
10 | 44:15.37 | 3:05.20 | 199162 | 213056
Характеристики диапазона извлечения и сообщения об ошибках
Выбранный диапазон
Имя файла D:\EAC-FOLDER\1981-Bobby Womack - The Poet\1981-Bobby Womack - The Poet\Bobby Womack - The Poet.wav
Пиковый уровень 100.0 %
Качество диапазона 100.0 %
CRC теста 57952DED
CRC копии 57952DED
Копирование... OK
Ошибок не произошло
AccurateRip: сводка
Трек 1 точное извлечение (доверие 2) [8608E5DB]
Трек 2 точное извлечение (доверие 2) [5AA44889]
Трек 3 точное извлечение (доверие 2) [C8827039]
Трек 4 точное извлечение (доверие 2) [1B97070F]
Трек 5 точное извлечение (доверие 2) [6504FCC3]
Трек 6 точное извлечение (доверие 2) [DCA1D44F]
Трек 7 точное извлечение (доверие 2) [2AA4285D]
Трек 8 точное извлечение (доверие 2) [830F7C65]
Трек 9 точное извлечение (доверие 2) [6767650E]
Трек 10 точное извлечение (доверие 2) [0047CB4C]
Все треки извлечены точно
Конец отчёта
Доп. информация:

С наступлением 80-х "Бэд гай" Бабби сменил не только имидж, но и музыкальный "оклад" — в аранжировках появились электроника, синтезаторы и т п. Но это всё тот же напористо-пассионарный Вомак... Здесь ему помогают такие замечательные товарищи, как Натан Ист (бас),Дороти Эшби (арфа) и др.
В общем-то, недавнее "занесение" его в "Зал Славы рок-н-ролла" вполне закономерно.
Альбом рекомендован всем поклонникам приджазованного соула.
PS Рип свой. Внутри сканы буклета-постера, инлэя.
Bobby Womack — Across 110th Street
Приватный:
Да (DHT отключён)
Размер:
319.23 Мб (334,737,342 байт) » файлов: 10
Участники:
0 раздают, 0 качают (0 участников всего)
Внешние участники:
1 раздают, 0 качают (1 участников всего) [ Обновить ]
Нет сидеров - пишите личное сообщение M0p94ok. Не нравятся торренты? Участники группы Pro-jazz Club могут заказать прямую ссылку на скачивание из облака.
No seeders - write a personal message to M0p94ok. Don't like torrents? Members of Pro-jazz Club group can order a direct download link from the cloud.
02:54
18
Нет комментариев. Ваш будет первым!