Поиск

(Jazz/R&B) Patrice Rushen - Pizzazz (1979) - 2003, APE (image+.cue), lossless

(Jazz/R&B) Patrice Rushen - Pizzazz (1979) - 2003, APE (image+.cue), lossless
Треклист:
Patrice Rushen - Pizzazz (1979)
Жанр: Jazz/R&B
Год выпуска диска: 2003
Производитель диска: USA
Аудио кодек: APE
Тип рипа: image+.cue
Битрейт аудио: lossless
Продолжительность: 38:48
Трэклист:
01. Let The Music Take Me
02. Keepin' Faith In Love
03. Settle For My Love
04. Message In The Music
05. Haven't You Heard
06. Givin' It Up Is Givin' Up
07. Call On Me
08. Reprise
 
скрытый текст
[pre]Exact Audio Copy V0.99 prebeta 1 from 25. May 2007
Отчёт EAC об извлечении, выполненном 12. марта 2010, 14:19
Patrice Rushen / Pizzazz
Дисковод: Optiarc DVD RW AD-7203S Adapter: 0 ID: 1
Режим чтения : Достоверность
Использование точного потока : Да
Отключение кэша аудио : Да
Использование указателей C2 : Нет
Коррекция смещения при чтении : 48
Способность читать области Lead-in и Lead-out : Нет
Заполнение пропущенных сэмплов тишиной : Да
Удаление блоков с тишиной в начале и конце : Нет
Интерфейс : Встроенный Win32-интерфейс для Win NT/2000
Выходной формат : Внутренние WAV-операции
Формат сэмплов : 44.100 Гц; 16 бит; стерео
TOC извлечённого CD
Трек | Старт | Длительность | Начальный сектор | Конечный сектор
---------------------------------------------------------------------
1 | 0:00.00 | 6:51.15 | 0 | 30839
2 | 6:51.15 | 4:08.52 | 30840 | 49491
3 | 10:59.67 | 5:15.33 | 49492 | 73149
4 | 16:15.25 | 3:01.47 | 73150 | 86771
5 | 19:16.72 | 6:45.22 | 86772 | 117168
6 | 26:02.19 | 4:59.52 | 117169 | 139645
7 | 31:01.71 | 6:48.67 | 139646 | 170312
8 | 37:50.63 | 0:57.20 | 170313 | 174607
Характеристики диапазона извлечения и сообщения об ошибках
Выбранный диапазон
Имя файла D:\Моя музыка\My Lossless\µTorrent\Patrice Rushen - Pizzazz (1979)\Patrice Rushen - Pizzazz.wav
Пиковый уровень 98.8 %
Качество диапазона 99.9 %
CRC копии C0B2C9B6
Копирование... OK
AccurateRip: сводка
Трек 1 точное извлечение (доверие 3) [3C812709]
Трек 2 точное извлечение (доверие 4) [D83839B9]
Трек 3 точное извлечение (доверие 3) [8FB97218]
Трек 4 точное извлечение (доверие 3) [91C64B35]
Трек 5 точное извлечение (доверие 3) [3A36EBE2]
Трек 6 точное извлечение (доверие 3) [2F8D46FA]
Трек 7 точное извлечение (доверие 3) [85A3AF38]
Трек 8 точное извлечение (доверие 3) [33C340EB]
Ошибок не произошло
Конец отчёта
Приватный:
Нет (DHT включён)
Размер:
254.21 Мб (266,561,831 байт) » файлов: 8
Участники:
0 раздают, 0 качают (0 участников всего)
Внешние участники:
1 раздают, 0 качают (1 участников всего) [ Обновить ]
Никого нет на раздаче - пишите личное сообщение M0p94ok
No seeders - write personal message to M0p94ok
02:54
31
Нет комментариев. Ваш будет первым!