Поиск

(Funky Soul/Northern Soul) J.R. Bailey — Just Me 'N You (1974) - 2006, FLAC (image+.cue), lossless

(Funky Soul/Northern Soul) J.R. Bailey — Just Me 'N You (1974) - 2006, FLAC (image+.cue), lossless
Треклист:
J.R. Bailey — Just Me 'N You (1974)
Жанр: Funky Soul/Northern Soul
Год выпуска диска: 2006
Производитель диска: UK (Soul Brother/Passion/Chrysalis)
Аудио кодек: FLAC
Тип рипа: image+.cue
Битрейт аудио: lossless
Продолжительность: 40:06
Трэклист:
01. After Hours 02:57
02. Heaven On Earth 05:09
03. Just Me 'N You 05:41
04. She Called Me 04:42
05. Cute As A Button 03:30
06. Love, Love, Love 03:04
07. I'll Always Be Your Lover 04:12
08. All Strung Out Over You 03:34
09. Not Too Long Ago 04:07
10. Everything I Want I See In You 03:05
 
отчёт ЕАС
Exact Audio Copy V0.99 prebeta 4 from 23. January 2008
Отчёт EAC об извлечении, выполненном 11. марта 2010, 23:49
J.R. Bailey / Jusut Me 'N You
Дисковод: Optiarc DVD RW AD-7203S Adapter: 1 ID: 1
Режим чтения : Достоверность
Использование точного потока : Да
Отключение кэша аудио : Да
Использование указателей C2 : Нет
Коррекция смещения при чтении : 48
Способность читать области Lead-in и Lead-out : Нет
Заполнение пропущенных сэмплов тишиной : Да
Удаление блоков с тишиной в начале и конце : Нет
При вычислениях CRC использовались нулевые сэмплы : Да
Интерфейс : Встроенный Win32-интерфейс для Win NT/2000
Выходной формат : Пользовательский кодировщик
Выбранный битрейт : 1024 kBit/s
Качество : Высокий
Добавление ID3-тэга : Нет
Утилита сжатия : C:\Program Files\Exact Audio Copy\Flac\flac.exe
Дополнительные параметры : -V -8 -T "artist=%a" -T "title=%t" -T "album=%g" -T "date=%y" -T "tracknumber=%n" -T "genre=%m" %s
TOC извлечённого CD
Трек | Старт | Длительность | Начальный сектор | Конечный сектор
---------------------------------------------------------------------
1 | 0:00.00 | 2:57.07 | 0 | 13281
2 | 2:57.07 | 5:09.23 | 13282 | 36479
3 | 8:06.30 | 5:41.40 | 36480 | 62094
4 | 13:47.70 | 4:42.68 | 62095 | 83312
5 | 18:30.63 | 3:30.04 | 83313 | 99066
6 | 22:00.67 | 3:04.27 | 99067 | 112893
7 | 25:05.19 | 4:12.53 | 112894 | 131846
8 | 29:17.72 | 3:34.23 | 131847 | 147919
9 | 32:52.20 | 4:07.54 | 147920 | 166498
10 | 36:59.74 | 3:05.48 | 166499 | 180421
Характеристики диапазона извлечения и сообщения об ошибках
Выбранный диапазон
Имя файла D:\EAC-FOLDER\1974-J.R. Bailey - Jusut Me 'N You\1974-J.R. Bailey - Jusut Me 'N You\J.R. Bailey - Jusut Me 'N You.wav
Пиковый уровень 98.9 %
Качество диапазона 100.0 %
CRC теста 787A32E6
CRC копии 787A32E6
Копирование... OK
Ошибок не произошло
AccurateRip: сводка
Трек 1 точность не определена (достоверность 1) [7A420BC6], AccurateRip вернул [A0A1A352]
Трек 2 точность не определена (достоверность 1) [F3042972], AccurateRip вернул [EBBF55BE]
Трек 3 точность не определена (достоверность 1) [F720771D], AccurateRip вернул [B0C3EA97]
Трек 4 точность не определена (достоверность 1) [7064C9D7], AccurateRip вернул [BB38A3AF]
Трек 5 точность не определена (достоверность 1) [2181CCBC], AccurateRip вернул [C08BF72A]
Трек 6 точность не определена (достоверность 1) [9482B877], AccurateRip вернул [530EF355]
Трек 7 точность не определена (достоверность 1) [B48B56C7], AccurateRip вернул [8ED8F733]
Трек 8 точность не определена (достоверность 1) [E57E5B2C], AccurateRip вернул [AACE5AEA]
Трек 9 точность не определена (достоверность 1) [24589B91], AccurateRip вернул [B930D093]
Трек 10 точность не определена (достоверность 1) [8CB11E08], AccurateRip вернул [A0F0ECAA]
Ни один трек не прошёл проверки на точность
В вашей базе может быть иной вариант штамповки диска
Конец отчёта
Доп. информация: Любите музыку Данни Хэтувея, Марвина Гея?
Тогда этот диск Джеймса Ральфа Бэйли для вас.
Мало кто его помнит в наших краях.
Очень жаль, а ведь этот парень автор большого числа замечательных песен, которые в разное время исполняли: Бен И Кинг, Эстер Филлипс, Айк и Тина Тёрнер, Плэттерс, Мэлвин вэн Пиблз и, конечно же, Арита Фрэнклин, Айзек Хэйз, Милли Джэксон, Данни Хэтувей, Роберта Флэк ... Увы, Бэйли умер в 1980-м, записав только два полноценных сольника. Зато каких! Виниловый оригинал представленного диска в английских каталогах-магазинах на сегодня "уходит" по цене 250-300 фунтов.
Поклонникам позитивного мелодичного фанки-соула.
PS Рип свой, внутри сканы.
Приватный:
Да (DHT отключён)
Размер:
260.89 Мб (273,566,862 байт) » файлов: 8
Участники:
0 раздают, 0 качают (0 участников всего)
Внешние участники:
3 раздают, 1 качают (4 участников всего) [ Обновить ]
Нет сидеров - пишите личное сообщение M0p94ok. Не нравятся торренты? Участники группы Pro-jazz Club могут заказать прямую ссылку на скачивание из облака.
No seeders - write a personal message to M0p94ok. Don't like torrents? Members of Pro-jazz Club group can order a direct download link from the cloud.
02:53
19
Нет комментариев. Ваш будет первым!