Поиск

(R&B, Soul) Aretha Franklin - Aretha's Best - 2001, APE (image+.cue), lossless

(R&B, Soul) Aretha Franklin - Aretha's Best - 2001, APE (image+.cue), lossless
Треклист:
Aretha Franklin - Aretha's Best
Жанр: R&B, Soul
Год выпуска диска: 2001
Производитель диска: Atlantic Records Corp.
Аудио кодек: APE
Тип рипа: image+.cue
Битрейт аудио: lossless
Продолжительность: 70:07
Трэклист:
01. Respect
02. Think
03. Freeway of Love
04. Baby, I Love You
05. Natural Woman, (You Make Me Feel Like) A
06. Day Dreaming
07. I Say a Little Prayer
08. House That Jack Built, The
09. Since You've Been Gone, (Sweet Sweet Baby)
10. Spanish Harlem
11. Jump to It
12. I Knew You Were Waiting (For Me) - (with George Michael)
13. Chain of Fools
14. Rock Steady
15. Who's Zoomin' Who
16. Until You Come Back to Me (That's What I'm Gonna Do)
17. I Never Loved a Man (The Way I Love You)
18. Call Me
19. Do Right Woman-Do Right Man
20. Bridge Over Troubled Water
Доп. информация: Источник: найдено в сети…, спасибо Alex ZAM
 
Отчёт EAC
Exact Audio Copy V0.99 prebeta 5 from 4. May 2009
EAC extraction logfile from 12. November 2009, 1:41
Aretha Franklin / Aretha's Best
Used drive : HL-DT-STDVD-RAM GSA-H22N Adapter: 1 ID: 0
Read mode : Secure
Utilize accurate stream : Yes
Defeat audio cache : Yes
Make use of C2 pointers : No
Read offset correction : 102
Overread into Lead-In and Lead-Out : No
Fill up missing offset samples with silence : Yes
Delete leading and trailing silent blocks : No
Null samples used in CRC calculations : Yes
Used interface : Native Win32 interface for Win NT & 2000
Used output format : Internal WAV Routines
Sample format : 44.100 Hz; 16 Bit; Stereo
TOC of the extracted CD
Track | Start | Length | Start sector | End sector
---------------------------------------------------------
1 | 0:00.00 | 2:25.72 | 0 | 10946
2 | 2:25.72 | 2:19.08 | 10947 | 21379
3 | 4:45.05 | 5:52.60 | 21380 | 47839
4 | 10:37.65 | 2:43.60 | 47840 | 60124
5 | 13:21.50 | 2:45.17 | 60125 | 72516
6 | 16:06.67 | 4:00.70 | 72517 | 90586
7 | 20:07.62 | 3:35.43 | 90587 | 106754
8 | 23:43.30 | 2:21.10 | 106755 | 117339
9 | 26:04.40 | 2:26.00 | 117340 | 128289
10 | 28:30.40 | 3:34.60 | 128290 | 144399
11 | 32:05.25 | 4:16.65 | 144400 | 163664
12 | 36:22.15 | 4:01.72 | 163665 | 181811
13 | 40:24.12 | 2:49.50 | 181812 | 194536
14 | 43:13.62 | 3:14.13 | 194537 | 209099
15 | 46:28.00 | 4:44.72 | 209100 | 230471
16 | 51:12.72 | 3:27.35 | 230472 | 246031
17 | 54:40.32 | 2:51.13 | 246032 | 258869
18 | 57:31.45 | 3:56.55 | 258870 | 276624
19 | 61:28.25 | 3:16.17 | 276625 | 291341
20 | 64:44.42 | 5:33.15 | 291342 | 316331
Range status and errors
Selected range
Filename C:\Music\OUT Record\Aretha\AF-AB\Aretha Franklin - Aretha's Best.wav
Peak level 99.4 %
Range quality 100.0 %
Copy CRC 55F9E386
Copy OK
No errors occurred
AccurateRip summary
Track 1 not present in database
Track 2 not present in database
Track 3 not present in database
Track 4 not present in database
Track 5 not present in database
Track 6 not present in database
Track 7 not present in database
Track 8 not present in database
Track 9 not present in database
Track 10 not present in database
Track 11 not present in database
Track 12 not present in database
Track 13 not present in database
Track 14 not present in database
Track 15 not present in database
Track 16 not present in database
Track 17 not present in database
Track 18 not present in database
Track 19 not present in database
Track 20 not present in database
None of the tracks are present in the AccurateRip database
End of status report
 
Текст CUE Sheet
REM GENRE R&B
REM DATE 2001
REM DISCID 37107914
REM COMMENT "ExactAudioCopy v0.99pb5"
PERFORMER "Aretha Franklin"
TITLE "Aretha's Best"
FILE "Aretha Franklin - Aretha's Best.ape" WAVE
TRACK 01 AUDIO
TITLE "Respect"
PERFORMER "Aretha Franklin"
INDEX 01 00:00:00
TRACK 02 AUDIO
TITLE "Think"
PERFORMER "Aretha Franklin"
INDEX 01 02:25:72
TRACK 03 AUDIO
TITLE "Freeway of love"
PERFORMER "Aretha Franklin"
INDEX 00 04:43:35
INDEX 01 04:45:05
TRACK 04 AUDIO
TITLE "Baby, I love you"
PERFORMER "Aretha Franklin"
INDEX 00 10:37:30
INDEX 01 10:37:65
TRACK 05 AUDIO
TITLE "A natural woman (You make me feel like)"
PERFORMER "Aretha Franklin"
INDEX 00 13:20:27
INDEX 01 13:21:50
TRACK 06 AUDIO
TITLE "Day dreaming"
PERFORMER "Aretha Franklin"
INDEX 01 16:06:67
TRACK 07 AUDIO
TITLE "I say a little prayer"
PERFORMER "Aretha Franklin"
INDEX 01 20:07:62
TRACK 08 AUDIO
TITLE "Tha house that Jack built"
PERFORMER "Aretha Franklin"
INDEX 00 23:42:20
INDEX 01 23:43:30
TRACK 09 AUDIO
TITLE "(Sweet sweet baby) since you've been gone"
PERFORMER "Aretha Franklin"
INDEX 00 26:02:62
INDEX 01 26:04:40
TRACK 10 AUDIO
TITLE "Spanish harlem"
PERFORMER "Aretha Franklin"
INDEX 00 28:28:55
INDEX 01 28:30:40
TRACK 11 AUDIO
TITLE "Jump to it"
PERFORMER "Aretha Franklin"
INDEX 00 32:02:20
INDEX 01 32:05:25
TRACK 12 AUDIO
TITLE "I knew you were waiting (for me) - A Franklin & G Michael"
PERFORMER "Aretha Franklin"
INDEX 01 36:22:15
TRACK 13 AUDIO
TITLE "Chain of fools"
PERFORMER "Aretha Franklin"
INDEX 00 40:22:10
INDEX 01 40:24:12
TRACK 14 AUDIO
TITLE "Rock Steady"
PERFORMER "Aretha Franklin"
INDEX 00 43:11:55
INDEX 01 43:13:62
TRACK 15 AUDIO
TITLE "Who's zoomin' Who"
PERFORMER "Aretha Franklin"
INDEX 01 46:28:00
TRACK 16 AUDIO
TITLE "Until you come back to me (that's what i'm gonna do)"
PERFORMER "Aretha Franklin"
INDEX 00 51:11:37
INDEX 01 51:12:72
TRACK 17 AUDIO
TITLE "I never loved a man (the way i love you)"
PERFORMER "Aretha Franklin"
INDEX 00 54:38:27
INDEX 01 54:40:32
TRACK 18 AUDIO
TITLE "Call me"
PERFORMER "Aretha Franklin"
INDEX 00 57:30:22
INDEX 01 57:31:45
TRACK 19 AUDIO
TITLE "Do right woman-do right man"
PERFORMER "Aretha Franklin"
INDEX 00 61:26:32
INDEX 01 61:28:25
TRACK 20 AUDIO
TITLE "Bridge over troubled water"
PERFORMER "Aretha Franklin"
INDEX 00 64:42:35
INDEX 01 64:44:42
 
отчет auCDtect Task Manager
-----------------------
DON'T MODIFY THIS FILE
-----------------------
PERFORMER: auCDtect Task Manager, ver. 1.0.3 B1 build 1.0.3.0
Copyright (c) 2008, 2009 y-soft. All rights reserved
http://y-soft.110mb.com
ANALYZER: auCDtect: CD records authenticity detector, version 0.8.2
Copyright (c) 2004 Oleg Berngardt. All rights reserved.
Copyright (c) 2004 Alexander Djourik. All rights reserved.
FILE: Aretha Franklin - Aretha's Best.ape
Size: 426978177 Hash: B9E251A50D62CC1AF791832549481203 Accuracy: -m0
Conclusion: CDDA 100%
Signature: E34E55EF2F730C5D35CFE56A7257B48BD785E977
Приватный:
Нет (DHT включён)
Размер:
413.18 Мб (433,249,226 байт) » файлов: 6
Участники:
0 раздают, 0 качают (0 участников всего)
Внешние участники:
14 раздают, 4 качают (18 участников всего) [ Обновить ]
Нет сидеров - пишите личное сообщение M0p94ok. Не нравятся торренты? Участники группы Pro-jazz Club могут заказать прямую ссылку на скачивание из облака.
No seeders - write a personal message to M0p94ok. Don't like torrents? Members of Pro-jazz Club group can order a direct download link from the cloud.
02:52
21
Нет комментариев. Ваш будет первым!