Поиск

(Funk/Soul) Stevie Wonder - Music From The Movie 'Jungle Fever' - 1991, APE (image+.cue), lossless

(Funk/Soul) Stevie Wonder - Music From The Movie 'Jungle Fever' - 1991, APE (image+.cue), lossless
Треклист:
Stevie Wonder - Music From The Movie 'Jungle Fever'
Жанр: Funk/Soul
Год выпуска диска: 1991
Производитель диска: USA
Аудио кодек: APE
Тип рипа: image+.cue
Битрейт аудио: lossless
Продолжительность: 51:10
Трэклист:
01 Fun Day
02 Queen In The Black
03 These Three Words
04 Each Other's Throat
05 If She Breaks Your Heart
06 Gotta Have You
07 Make Sure You're Sure
08 Jungle Fever
09 I Go Sailing
10 Chemical Love
11 Lighting Up The Candles
 
лог EAC
Exact Audio Copy V0.99 prebeta 1 from 25. May 2007
Отчёт EAC об извлечении, выполненном 11. марта 2010, 11:50
Stevie Wonder / Music From The Movie 'Jungle Fever'
Дисковод: Optiarc DVD RW AD-7203S Adapter: 0 ID: 1
Режим чтения : Достоверность
Использование точного потока : Да
Отключение кэша аудио : Да
Использование указателей C2 : Нет
Коррекция смещения при чтении : 48
Способность читать области Lead-in и Lead-out : Нет
Заполнение пропущенных сэмплов тишиной : Да
Удаление блоков с тишиной в начале и конце : Нет
Интерфейс : Встроенный Win32-интерфейс для Win NT/2000
Выходной формат : Внутренние WAV-операции
Формат сэмплов : 44.100 Гц; 16 бит; стерео
TOC извлечённого CD
Трек | Старт | Длительность | Начальный сектор | Конечный сектор
---------------------------------------------------------------------
1 | 0:00.00 | 4:40.53 | 0 | 21052
2 | 4:40.53 | 4:46.17 | 21053 | 42519
3 | 9:26.70 | 4:54.05 | 42520 | 64574
4 | 14:21.00 | 4:17.65 | 64575 | 83914
5 | 18:38.65 | 5:03.70 | 83915 | 106709
6 | 23:42.60 | 6:26.23 | 106710 | 135682
7 | 30:09.08 | 3:30.45 | 135683 | 151477
8 | 33:39.53 | 4:55.70 | 151478 | 173672
9 | 38:35.48 | 3:58.27 | 173673 | 191549
10 | 42:34.00 | 4:26.10 | 191550 | 211509
11 | 47:00.10 | 4:10.23 | 211510 | 230282
Характеристики диапазона извлечения и сообщения об ошибках
Выбранный диапазон
Имя файла D:\Моя музыка\My Lossless\Stevie Wonder - Music From The Movie 'Jungle Fever' (1991)\Stevie Wonder - Music From The Movie 'Jungle Fever'.wav
Пиковый уровень 100.0 %
Качество диапазона 100.0 %
CRC копии D61DF3CF
Копирование... OK
AccurateRip: сводка
Трек 1 точное извлечение (доверие 1) [B6EF80A0]
Трек 2 точное извлечение (доверие 1) [CE9A86A0]
Трек 3 точное извлечение (доверие 1) [2F4CEFA3]
Трек 4 точное извлечение (доверие 1) [02050D6F]
Трек 5 точное извлечение (доверие 1) [E2989BAB]
Трек 6 точное извлечение (доверие 1) [599B1B60]
Трек 7 точное извлечение (доверие 1) [199F0180]
Трек 8 точное извлечение (доверие 1) [4FD3AC07]
Трек 9 точное извлечение (доверие 1) [DABBFB9A]
Трек 10 точное извлечение (доверие 1) [72DA5B82]
Трек 11 точное извлечение (доверие 1) [F44F7BA3]
Ошибок не произошло
Конец отчёта
Приватный:
Нет (DHT включён)
Размер:
314.99 Мб (330,287,601 байт) » файлов: 8
Участники:
0 раздают, 0 качают (0 участников всего)
Внешние участники:
--- [ Обновить ]
Никого нет на раздаче - пишите личное сообщение M0p94ok
No seeders - write personal message to M0p94ok
02:52
15
Нет комментариев. Ваш будет первым!