Поиск

(Funky Soul / Chi-Soul) Rasputin Stash — Devil Made Me Do It (extra tracks) 1974 - 2000, FLAC (image+.cue), lossless

(Funky Soul / Chi-Soul) Rasputin Stash — Devil Made Me Do It (extra tracks) 1974 - 2000, FLAC (image+.cue), lossless
Треклист:
Rasputin Stash — Devil Made Me Do It (extra tracks) 1974
Жанр: Funky Soul / Chi-Soul
Год выпуска диска: 2000
Производитель диска: England (Castle/Curtom)
Аудио кодек: FLAC
Тип рипа: image+.cue
Битрейт аудио: lossless
Продолжительность: 74:57
Трэклист:
01. Ooh baby 03:05
02. I see your face 04:22
03. The devil made me do it 04:44
04. Hit it and pass it 05:38
05. I can feel your love 04:14
06. You're so special 04:02
07. Middle man 02:49
08. You opened up my mind 03:00
09. Giving 'way my love 03:15
Bonus Tracks:
10. Dance with me 03:35
11. Gotta have that hump 03:10
12. Booty march 03:46
13. Get down 03:38
14. Cool dance 02:46
15. Sweet vibe 03:29
16. Party lights 03:17
17. Everybody's a masterpiece 02:39
18. Confusion 05:03
19. Love and happiness 08:15
 
отчёт ЕАС
Exact Audio Copy V0.99 prebeta 4 from 23. January 2008
Отчёт EAC об извлечении, выполненном 11. марта 2010, 0:53
Rasputin Stash / Devil made me do it (extra tracks)
Дисковод: Optiarc DVD RW AD-7203S Adapter: 1 ID: 1
Режим чтения : Достоверность
Использование точного потока : Да
Отключение кэша аудио : Да
Использование указателей C2 : Нет
Коррекция смещения при чтении : 48
Способность читать области Lead-in и Lead-out : Нет
Заполнение пропущенных сэмплов тишиной : Да
Удаление блоков с тишиной в начале и конце : Нет
При вычислениях CRC использовались нулевые сэмплы : Да
Интерфейс : Встроенный Win32-интерфейс для Win NT/2000
Выходной формат : Пользовательский кодировщик
Выбранный битрейт : 1024 kBit/s
Качество : Высокий
Добавление ID3-тэга : Нет
Утилита сжатия : C:\Program Files\Exact Audio Copy\Flac\flac.exe
Дополнительные параметры : -V -8 -T "artist=%a" -T "title=%t" -T "album=%g" -T "date=%y" -T "tracknumber=%n" -T "genre=%m" %s
TOC извлечённого CD
Трек | Старт | Длительность | Начальный сектор | Конечный сектор
---------------------------------------------------------------------
1 | 0:00.00 | 3:05.57 | 0 | 13931
2 | 3:05.57 | 4:22.40 | 13932 | 33621
3 | 7:28.22 | 4:44.48 | 33622 | 54969
4 | 12:12.70 | 5:38.17 | 54970 | 80336
5 | 17:51.12 | 4:14.38 | 80337 | 99424
6 | 22:05.50 | 4:02.67 | 99425 | 117641
7 | 26:08.42 | 2:49.25 | 117642 | 130341
8 | 28:57.67 | 3:00.35 | 130342 | 143876
9 | 31:58.27 | 3:15.58 | 143877 | 158559
10 | 35:14.10 | 3:35.62 | 158560 | 174746
11 | 38:49.72 | 3:10.55 | 174747 | 189051
12 | 42:00.52 | 3:46.23 | 189052 | 206024
13 | 45:47.00 | 3:38.50 | 206025 | 222424
14 | 49:25.50 | 2:46.72 | 222425 | 234946
15 | 52:12.47 | 3:29.55 | 234947 | 250676
16 | 55:42.27 | 3:17.30 | 250677 | 265481
17 | 58:59.57 | 2:39.00 | 265482 | 277406
18 | 61:38.57 | 5:03.25 | 277407 | 300156
19 | 66:42.07 | 8:15.05 | 300157 | 337286
Характеристики диапазона извлечения и сообщения об ошибках
Выбранный диапазон
Имя файла D:\EAC-FOLDER\Rasputin Stash\Rasputin Stash - Devil made me do it (extra tracks)\Rasputin Stash - Devil made me do it (extra tracks).wav
Пиковый уровень 100.0 %
Качество диапазона 99.9 %
CRC копии 08C46531
Копирование... OK
Ошибок не произошло
AccurateRip: сводка
Трек 1 точное извлечение (доверие 1) [780F8434]
Трек 2 точное извлечение (доверие 1) [7F3E7A14]
Трек 3 точное извлечение (доверие 1) [A8B7F3E4]
Трек 4 точное извлечение (доверие 1) [FB11463D]
Трек 5 точное извлечение (доверие 1) [B0480C11]
Трек 6 точное извлечение (доверие 1) [2C760FA4]
Трек 7 точное извлечение (доверие 1) [DAD74EAA]
Трек 8 точное извлечение (доверие 1) [B2546BD9]
Трек 9 точное извлечение (доверие 1) [FB818934]
Трек 10 точное извлечение (доверие 1) [EE130915]
Трек 11 точное извлечение (доверие 1) [0E5300F8]
Трек 12 точное извлечение (доверие 1) [9D779DDE]
Трек 13 точное извлечение (доверие 1) [AA21DCA1]
Трек 14 точное извлечение (доверие 1) [0796D071]
Трек 15 точное извлечение (доверие 1) [A4A2DEFF]
Трек 16 точное извлечение (доверие 1) [E5ACA0AA]
Трек 17 точное извлечение (доверие 1) [817C8B40]
Трек 18 точное извлечение (доверие 1) [1DA06215]
Трек 19 точное извлечение (доверие 1) [CC97E8B2]
Все треки извлечены точно
Конец отчёта
Доп. информация: Редкая птица. Полузабытые ребята из Ветренного Города.
Группа с милой русской фамилией в названии играла настоящий фанки-соул Золотой Эпохи Грува 70-х. Записан на лейбле Кёртиса Мэйфилда.
Англичане из Кастла, помимо програмных 9 треков, пополнили диск ещё... десятью бонусами (6 из них ранее неопубликованных).
Видать, такой английский юмор.
РS Рип свой, внутри сканы.
Приватный:
Да (DHT отключён)
Размер:
514.44 Мб (539,429,918 байт) » файлов: 8
Участники:
0 раздают, 1 качают (1 участников всего)
Внешние участники:
3 раздают, 1 качают (4 участников всего) [ Обновить ]
Скорость:
642.42 Кб/c 0/c
02:51
22
Нет комментариев. Ваш будет первым!