Поиск

(Jazz- Funk,Big Band) Redtenbacher's Funkestra - Hausmusik - 2008, APE (image+.cue), lossless

(Jazz- Funk,Big Band) Redtenbacher's Funkestra - Hausmusik - 2008, APE (image+.cue), lossless
Треклист:
Redtenbacher's Funkestra- Hausmusik
Жанр: Jazz- Funk,Big Band
Год выпуска диска: 2008
Производитель диска: RSB Music/USA/
Аудио кодек: APE
Тип рипа: image+.cue
Битрейт аудио: lossless
Продолжительность: 01:13:41
Трэклист:
1.Royal Rooster
2.Fred's Haus-featuring Fred Wesley
3.Music to Swing Your Handbag to Shindig!
4The Chit-Chat
5.Theme from 'Diamond Tiger'
6.Bow Wow
7.WRBD(Rocking Big Daddy)
8.The Sound of Dazz(radio edit)
9.The Return of the Manbag
10.Theme from 'Diamond Tiger'(guitar edit)
11.WRBD(trumpet edit)
12.The Sound of Dazz
Доп. информация: Bass,guitar,programming and all other noises-Stefan Redtenbacher.
The rhythm section:
Guitars:
Mice Ciro,Pete Friesen,
Eran Kendler,James Pusey,
Tom Reif.
Special guest-Elliott Randall
Organ & vintage keys:
Gunther Kuermayr,Dave Limina,
Rich Millner,Nichol Thomson.
Vibraphone & Marimba:
Anthony Kerr.
Percussion:
Thomas Dyani-Akiru,
Gabriel Nuzzoli,
Mike Sturgis.
Drums:
Mike Sturgs.
Vocals:
Ana Gracey
Henrik Wager
The horn section:
Trumpets:
Sid Gauld,Matt Holland,Albert Leusink
Special guest-Lee Thornburg
Trombones:
Nichol Thomson,
Special guest-Fred Wesley.
Saxophones:
Ben Castle,Thomas Foyer,Robert Friedl,
James Hunt,James Knight,Mike Smith,
Andy Ross,David'Woody'Woodford,
Special guest-Stephen"Doc"Kupka-baritone saxophone.
Flutes:
Stuart Curtis,Thomas Foyer,Jim Hunt,Andy Ross.
Sitar:
James Pusey.
Рип из личного архива.
 
Отчёт EAC
Exact Audio Copy V0.99 prebeta 4 from 23. January 2008
Отчёт EAC об извлечении, выполненном 8. марта 2010, 23:21
Redtenbacher's Funkestra / Hausmusik
Дисковод: _NEC DVD_RW ND-2510A Adapter: 1 ID: 0
Режим чтения : Достоверность
Использование точного потока : Да
Отключение кэша аудио : Да
Использование указателей C2 : Нет
Коррекция смещения при чтении : 48
Способность читать области Lead-in и Lead-out : Нет
Заполнение пропущенных сэмплов тишиной : Да
Удаление блоков с тишиной в начале и конце : Нет
При вычислениях CRC использовались нулевые сэмплы : Да
Интерфейс : Установленный внешний ASPI-интерфейс
Выходной формат : Внутренние WAV-операции
Формат сэмплов : 44.100 Гц; 16 бит; стерео
TOC извлечённого CD
Трек | Старт | Длительность | Начальный сектор | Конечный сектор
---------------------------------------------------------------------
1 | 0:00.00 | 5:09.23 | 0 | 23197
2 | 5:09.23 | 6:31.56 | 23198 | 52578
3 | 11:41.04 | 6:11.43 | 52579 | 80446
4 | 17:52.47 | 4:24.48 | 80447 | 100294
5 | 22:17.20 | 5:54.11 | 100295 | 126855
6 | 28:11.31 | 5:42.52 | 126856 | 152557
7 | 33:54.08 | 5:35.15 | 152558 | 177697
8 | 39:29.23 | 5:36.18 | 177698 | 202915
9 | 45:05.41 | 4:07.30 | 202916 | 221470
10 | 49:12.71 | 5:03.65 | 221471 | 244260
11 | 54:16.61 | 5:44.35 | 244261 | 270095
12 | 60:01.21 | 5:37.19 | 270096 | 295389
13 | 65:38.40 | 8:02.07 | 295390 | 331546
Характеристики диапазона извлечения и сообщения об ошибках
Выбранный диапазон
Имя файла E:\ПРОЕКТ\Redtenbacher's Funkestra-Hausmusic 2008\Redtenbacher's Funkestra - Hausmusik.wav
Пиковый уровень 100.0 %
Качество диапазона 99.9 %
CRC теста 6390C5C1
CRC копии 6390C5C1
Копирование... OK
Ошибок не произошло
AccurateRip: сводка
Трек 1 точное извлечение (доверие 1) [93689BA9]
Трек 2 точное извлечение (доверие 1) [479912F3]
Трек 3 точное извлечение (доверие 1) [7903FFA7]
Трек 4 точное извлечение (доверие 1) [E5216D8B]
Трек 5 точное извлечение (доверие 1) [3D762779]
Трек 6 точное извлечение (доверие 1) [75A1ED01]
Трек 7 точное извлечение (доверие 1) [97836052]
Трек 8 точное извлечение (доверие 1) [3D49A92D]
Трек 9 точное извлечение (доверие 1) [E4104E72]
Трек 10 точное извлечение (доверие 1) [0B88C8CC]
Трек 11 точное извлечение (доверие 1) [0E42D83D]
Трек 12 точное извлечение (доверие 1) [FDC781AB]
Трек 13 точное извлечение (доверие 1) [593FA598]
Все треки извлечены точно
Конец отчёта
Приватный:
Нет (DHT включён)
Размер:
493.88 Мб (517,872,641 байт) » файлов: 5
Участники:
0 раздают, 0 качают (0 участников всего)
Внешние участники:
1 раздают, 0 качают (1 участников всего) [ Обновить ]
Никого нет на раздаче - пишите личное сообщение M0p94ok
No seeders - write personal message to M0p94ok
02:50
18
Нет комментариев. Ваш будет первым!