Поиск

(jazz, funk, soul) Bobbi Humphrey - Freestyle (1978) - 2008, APE (image+.cue), lossless

(jazz, funk, soul) Bobbi Humphrey - Freestyle (1978) - 2008, APE (image+.cue), lossless
Треклист:
Bobbi Humphrey - Freestyle (1978)
Жанр: jazz, funk, soul
Год выпуска диска: 2008
Производитель диска: Japan
Аудио кодек: APE
Тип рипа: image+.cue
Битрейт аудио: lossless
Продолжительность: 37:31
Трэклист:
01 Home-Made Jam
02 My Destiny
03 I Could Love You More
04 Sunset Burgundy
05 Freestyle
06 If You Want It
07 If You Let Me
08 Good Times
 
log EAC
Exact Audio Copy V0.99 prebeta 4 from 23. January 2008
EAC extraction logfile from 11. July 2009, 13:06
Bobbi Humphrey / Freestyle
Used drive : PLEXTOR DVDR PX-800A Adapter: 3 ID: 0
Read mode : Secure
Utilize accurate stream : Yes
Defeat audio cache : Yes
Make use of C2 pointers : No
Read offset correction : 48
Overread into Lead-In and Lead-Out : No
Fill up missing offset samples with silence : Yes
Delete leading and trailing silent blocks : No
Null samples used in CRC calculations : No
Used interface : Native Win32 interface for Win NT & 2000
Used output format : Internal WAV Routines
Sample format : 44.100 Hz; 16 Bit; Stereo
TOC of the extracted CD
Track | Start | Length | Start sector | End sector
---------------------------------------------------------
1 | 0:00.00 | 5:01.11 | 0 | 22585
2 | 5:01.11 | 4:37.50 | 22586 | 43410
3 | 9:38.61 | 5:00.26 | 43411 | 65936
4 | 14:39.12 | 4:16.66 | 65937 | 85202
5 | 18:56.03 | 4:42.16 | 85203 | 106368
6 | 23:38.19 | 4:28.10 | 106369 | 126478
7 | 28:06.29 | 4:30.25 | 126479 | 146753
8 | 32:36.54 | 4:53.68 | 146754 | 168796
Range status and errors
Selected range
Filename J:\Моя музыка\My Lossless\Bobbi Humphrey\Bobbi Humphrey - Freestyle (1978)\Bobbi Humphrey - Freestyle.wav
Peak level 100.0 %
Range quality 100.0 %
Copy CRC 5304CC11
Copy OK
No errors occurred
AccurateRip summary
Track 1 not present in database
Track 2 not present in database
Track 3 not present in database
Track 4 not present in database
Track 5 not present in database
Track 6 not present in database
Track 7 not present in database
Track 8 not present in database
None of the tracks are present in the AccurateRip database
End of status report
Приватный:
Нет (DHT включён)
Размер:
243.42 Мб (255,244,076 байт) » файлов: 10
Участники:
0 раздают, 0 качают (0 участников всего)
Внешние участники:
--- [ Обновить ]
Никого нет на раздаче - пишите личное сообщение M0p94ok
No seeders - write personal message to M0p94ok
02:55
13
Нет комментариев. Ваш будет первым!