Поиск

(Funk,Soul,Jazz) Average White Band - Soul Searching (R2 71272) - 1993, FLAC (tracks+.cue), lossless

(Funk,Soul,Jazz) Average White Band - Soul Searching (R2 71272) - 1993, FLAC (tracks+.cue), lossless
Треклист:
Average White Band - Soul Searching
Жанр: Funk Soul Jazz
Год выпуска диска: 1993
Производитель диска: US \ Rhino Entertainment Company
Аудио кодек: FLAC
Тип рипа: tracks+.cue
Битрейт аудио: lossless
Продолжительность: 00:46:25

1. Average White Band - Overture (2:14)
2. Average White Band - Love Your Life (4:53)
3. Average White Band - I'm The One (4:21)
4. Average White Band - A Love Of Your Own (5:33)
5. Average White Band - Queen Of My Soul (6:07)
6. Average White Band - Soul Searching (3:18)
7. Average White Band - Goin' Home (4:44)
8. Average White Band - Everybody's Darling (3:36)
9. Average White Band - Would You Stay (5:35)
10. Average White Band - Sunny Days (Make Me think Of You) (3:19)
11. Average White Band - Digging Deeper (Finale) (2:45)
Собственноручный рип с оригинального диска от funky_cat!
 
Log EAC
Exact Audio Copy V0.99 prebeta 5 from 4. May 2009
EAC extraction logfile from 13. March 2010, 4:19
Average White Band / Soul Searching
Used drive : Optiarc DVD RW AD-7170A Adapter: 0 ID: 1
Read mode : Secure
Utilize accurate stream : Yes
Defeat audio cache : Yes
Make use of C2 pointers : No
Read offset correction : 48
Overread into Lead-In and Lead-Out : No
Fill up missing offset samples with silence : Yes
Delete leading and trailing silent blocks : No
Null samples used in CRC calculations : Yes
Used interface : Native Win32 interface for Win NT & 2000
Gap handling : Appended to previous track
Used output format : User Defined Encoder
Selected bitrate : 1024 kBit/s
Quality : High
Add ID3 tag : No
Command line compressor : C:\Program Files\FLAC\flac.exe
Additional command line options : -5 -V -T "ARTIST=%a" -T "TITLE=%t" -T "ALBUM=%g" -T "DATE=%y" -T "TRACKNUMBER=%n" -T "GENRE=%m" -T "COMMENT=Ripped by andygrakoff aka yetiisyou" %s
TOC of the extracted CD
Track | Start | Length | Start sector | End sector
---------------------------------------------------------
1 | 0:00.32 | 2:14.65 | 32 | 10146
2 | 2:15.22 | 4:53.25 | 10147 | 32146
3 | 7:08.47 | 4:21.38 | 32147 | 51759
4 | 11:30.10 | 5:33.62 | 51760 | 76796
5 | 17:03.72 | 6:07.53 | 76797 | 104374
6 | 23:11.50 | 3:18.17 | 104375 | 119241
7 | 26:29.67 | 4:44.28 | 119242 | 140569
8 | 31:14.20 | 3:36.22 | 140570 | 156791
9 | 34:50.42 | 5:35.20 | 156792 | 181936
10 | 40:25.62 | 3:19.58 | 181937 | 196919
11 | 43:45.45 | 2:45.55 | 196920 | 209349
Track 1
Filename E:\!Rips\FUNK @ SOUL\Average White Band - Soul Searching (R2 71272)\01 – Overture.wav
Pre-gap length 0:00:02.42
Peak level 94.1 %
Track quality 100.0 %
Test CRC D23A62AC
Copy CRC D23A62AC
Accurately ripped (confidence 6) [C3E2A532]
Copy OK
Track 2
Filename E:\!Rips\FUNK @ SOUL\Average White Band - Soul Searching (R2 71272)\02 – Love Your Life.wav
Pre-gap length 0:00:00.04
Peak level 97.2 %
Track quality 100.0 %
Test CRC 894E5620
Copy CRC 894E5620
Accurately ripped (confidence 6) [270430ED]
Copy OK
Track 3
Filename E:\!Rips\FUNK @ SOUL\Average White Band - Soul Searching (R2 71272)\03 – I'm The One.wav
Pre-gap length 0:00:01.44
Peak level 97.2 %
Track quality 100.0 %
Test CRC 05F8EF76
Copy CRC 05F8EF76
Accurately ripped (confidence 6) [2087A538]
Copy OK
Track 4
Filename E:\!Rips\FUNK @ SOUL\Average White Band - Soul Searching (R2 71272)\04 – A Love Of Your Own.wav
Pre-gap length 0:00:02.04
Peak level 97.2 %
Track quality 99.9 %
Test CRC F61CD50B
Copy CRC F61CD50B
Accurately ripped (confidence 6) [72190BC1]
Copy OK
Track 5
Filename E:\!Rips\FUNK @ SOUL\Average White Band - Soul Searching (R2 71272)\05 – Queen Of My Soul.wav
Pre-gap length 0:00:00.04
Peak level 88.2 %
Track quality 99.9 %
Test CRC E6B445A3
Copy CRC E6B445A3
Accurately ripped (confidence 6) [EFE59E5C]
Copy OK
Track 6
Filename E:\!Rips\FUNK @ SOUL\Average White Band - Soul Searching (R2 71272)\06 – Soul Searching.wav
Pre-gap length 0:00:02.54
Peak level 81.7 %
Track quality 99.9 %
Test CRC 792B047A
Copy CRC 792B047A
Accurately ripped (confidence 6) [3FCA0FCF]
Copy OK
Track 7
Filename E:\!Rips\FUNK @ SOUL\Average White Band - Soul Searching (R2 71272)\07 – Goin' Home.wav
Pre-gap length 0:00:02.17
Peak level 97.2 %
Track quality 100.0 %
Test CRC 15027662
Copy CRC 15027662
Accurately ripped (confidence 7) [800D0E05]
Copy OK
Track 8
Filename E:\!Rips\FUNK @ SOUL\Average White Band - Soul Searching (R2 71272)\08 – Everybody's Darling.wav
Pre-gap length 0:00:03.17
Peak level 90.1 %
Track quality 100.0 %
Test CRC EADB6202
Copy CRC EADB6202
Accurately ripped (confidence 5) [3639F8BD]
Copy OK
Track 9
Filename E:\!Rips\FUNK @ SOUL\Average White Band - Soul Searching (R2 71272)\09 – Would You Stay.wav
Pre-gap length 0:00:02.40
Peak level 86.2 %
Track quality 100.0 %
Test CRC CC553ABB
Copy CRC CC553ABB
Accurately ripped (confidence 6) [0EBE3464]
Copy OK
Track 10
Filename E:\!Rips\FUNK @ SOUL\Average White Band - Soul Searching (R2 71272)\10 – Sunny Days (Make Me think Of You).wav
Pre-gap length 0:00:00.30
Peak level 92.8 %
Track quality 100.0 %
Test CRC 06E593F2
Copy CRC 06E593F2
Accurately ripped (confidence 6) [0315F5ED]
Copy OK
Track 11
Filename E:\!Rips\FUNK @ SOUL\Average White Band - Soul Searching (R2 71272)\11 – Digging Deeper (Finale).wav
Pre-gap length 0:00:00.04
Peak level 97.2 %
Track quality 99.9 %
Test CRC 79D1A3BC
Copy CRC 79D1A3BC
Accurately ripped (confidence 6) [F5DD5B08]
Copy OK
All tracks accurately ripped
No errors occurred
End of status report
 
CUE
REM GENRE Funk
REM DATE 1976
REM DISCID 900AE70B
REM COMMENT "ExactAudioCopy v0.99pb5"
PERFORMER "Average White Band"
TITLE "Soul Searching"
FILE "01 – Overture.wav" WAVE
TRACK 01 AUDIO
TITLE "Overture"
PERFORMER "Average White Band"
PREGAP 00:00:32
INDEX 01 00:00:00
TRACK 02 AUDIO
TITLE "Love Your Life"
PERFORMER "Average White Band"
INDEX 00 02:14:62
FILE "02 – Love Your Life.wav" WAVE
INDEX 01 00:00:00
TRACK 03 AUDIO
TITLE "I'm The One"
PERFORMER "Average White Band"
INDEX 00 04:51:67
FILE "03 – I'm The One.wav" WAVE
INDEX 01 00:00:00
TRACK 04 AUDIO
TITLE "A Love Of Your Own"
PERFORMER "Average White Band"
INDEX 00 04:19:35
FILE "04 – A Love Of Your Own.wav" WAVE
INDEX 01 00:00:00
TRACK 05 AUDIO
TITLE "Queen Of My Soul"
PERFORMER "Average White Band"
INDEX 00 05:33:59
FILE "05 – Queen Of My Soul.wav" WAVE
INDEX 01 00:00:00
TRACK 06 AUDIO
TITLE "Soul Searching"
PERFORMER "Average White Band"
INDEX 00 06:05:12
FILE "06 – Soul Searching.wav" WAVE
INDEX 01 00:00:00
TRACK 07 AUDIO
TITLE "Goin' Home"
PERFORMER "Average White Band"
INDEX 00 03:16:04
FILE "07 – Goin' Home.wav" WAVE
INDEX 01 00:00:00
TRACK 08 AUDIO
TITLE "Everybody's Darling"
PERFORMER "Average White Band"
INDEX 00 04:41:15
FILE "08 – Everybody's Darling.wav" WAVE
INDEX 01 00:00:00
TRACK 09 AUDIO
TITLE "Would You Stay"
PERFORMER "Average White Band"
INDEX 00 03:33:67
FILE "09 – Would You Stay.wav" WAVE
INDEX 01 00:00:00
TRACK 10 AUDIO
TITLE "Sunny Days (Make Me think Of You)"
PERFORMER "Average White Band"
INDEX 00 05:34:72
FILE "10 – Sunny Days (Make Me think Of You).wav" WAVE
INDEX 01 00:00:00
TRACK 11 AUDIO
TITLE "Digging Deeper (Finale)"
PERFORMER "Average White Band"
INDEX 00 03:19:55
FILE "11 – Digging Deeper (Finale).wav" WAVE
INDEX 01 00:00:00
Приватный:
Нет (DHT включён)
Размер:
298.21 Мб (312,695,148 байт) » файлов: 22
Участники:
0 раздают, 0 качают (0 участников всего)
Внешние участники:
5 раздают, 1 качают (6 участников всего) [ Обновить ]
Нет сидеров - пишите личное сообщение M0p94ok. Не нравятся торренты? Участники группы Pro-jazz Club могут заказать прямую ссылку на скачивание из облака.
No seeders - write a personal message to M0p94ok. Don't like torrents? Members of Pro-jazz Club group can order a direct download link from the cloud.
02:56
17
Нет комментариев. Ваш будет первым!