Поиск

(Funk) Bad Mutha Goose and the Brothers Grimm - Tower Of Babel - 1987, FLAC (tracks+.cue), lossless

(Funk) Bad Mutha Goose and the Brothers Grimm - Tower Of Babel - 1987, FLAC (tracks+.cue), lossless
Треклист:
Bad Mutha Goose and the Brothers Grimm - Tower Of Babel
Жанр: Funk
Год выпуска диска: 1987
Производитель диска: ALPHA RECORDS
Аудио кодек: FLAC
Тип рипа: tracks+.cue
Битрейт аудио: lossless
Продолжительность: 00:57:45
Трэклист:
1.Soul Food (4:01)
2.Be Somebody (4:03)
3.Free Your Mind (5:48)
4.Time To Get (4:52)
5.Party Platform (3:41)
6.Higher (6:05)
7.Mighty Mighty (4:44)
8.Pride (3:59)
9.Bills (4:14)
10.#1 (5:09)
11.Jump The Funk (4:26)
12.100% (3:04)
13.(Afro Jam) (3:39)
Собственноручный рип с оригинального диска от funky_cat!
 
Log EAC
Exact Audio Copy V0.99 prebeta 5 from 4. May 2009
EAC extraction logfile from 8. March 2010, 2:04
Bad Mutha Goose And The Brothers Grimm / Tower Of Babel
Used drive : ASUS DRW-1608P2 Adapter: 0 ID: 0
Read mode : Secure
Utilize accurate stream : Yes
Defeat audio cache : Yes
Make use of C2 pointers : No
Read offset correction : 48
Overread into Lead-In and Lead-Out : No
Fill up missing offset samples with silence : Yes
Delete leading and trailing silent blocks : No
Null samples used in CRC calculations : Yes
Used interface : Native Win32 interface for Win NT & 2000
Gap handling : Appended to previous track
Used output format : User Defined Encoder
Selected bitrate : 320 kBit/s
Quality : High
Add ID3 tag : No
Command line compressor : C:\Program Files\FLAC\flac.exe
Additional command line options : -5 -V -T "ARTIST=%a" -T "TITLE=%t" -T "ALBUM=%g" -T "DATE=%y" -T "TRACKNUMBER=%n" -T "GENRE=%m" -T "COMMENT=Ripped By andygrakoff aka yetiisyou" %s
TOC of the extracted CD
Track | Start | Length | Start sector | End sector
---------------------------------------------------------
1 | 0:00.00 | 4:01.38 | 0 | 18112
2 | 4:01.38 | 4:03.20 | 18113 | 36357
3 | 8:04.58 | 5:48.25 | 36358 | 62482
4 | 13:53.08 | 4:52.20 | 62483 | 84402
5 | 18:45.28 | 3:41.72 | 84403 | 101049
6 | 22:27.25 | 6:05.53 | 101050 | 128477
7 | 28:33.03 | 4:44.15 | 128478 | 149792
8 | 33:17.18 | 3:59.45 | 149793 | 167762
9 | 37:16.63 | 4:14.27 | 167763 | 186839
10 | 41:31.15 | 5:09.13 | 186840 | 210027
11 | 46:40.28 | 4:26.65 | 210028 | 230042
12 | 51:07.18 | 3:04.37 | 230043 | 243879
13 | 54:11.55 | 3:39.10 | 243880 | 260314
Track 1
Filename E:\!Rips\FUNK @ SOUL\Bad Mutha Goose and the Brothers Grimm - Tower Of Babel (ALPHA RECORDS) 1991\01 – Soul Food.wav
Pre-gap length 0:00:02.00
Peak level 97.7 %
Track quality 100.0 %
Test CRC F0DAB33F
Copy CRC F0DAB33F
Track not present in AccurateRip database
Copy OK
Track 2
Filename E:\!Rips\FUNK @ SOUL\Bad Mutha Goose and the Brothers Grimm - Tower Of Babel (ALPHA RECORDS) 1991\02 – Be Somebody.wav
Peak level 98.8 %
Track quality 100.0 %
Test CRC 36C035C4
Copy CRC 36C035C4
Track not present in AccurateRip database
Copy OK
Track 3
Filename E:\!Rips\FUNK @ SOUL\Bad Mutha Goose and the Brothers Grimm - Tower Of Babel (ALPHA RECORDS) 1991\03 – Free Your Mind.wav
Peak level 94.2 %
Track quality 99.9 %
Test CRC 53541139
Copy CRC 53541139
Track not present in AccurateRip database
Copy OK
Track 4
Filename E:\!Rips\FUNK @ SOUL\Bad Mutha Goose and the Brothers Grimm - Tower Of Babel (ALPHA RECORDS) 1991\04 – Time To Get.wav
Peak level 97.7 %
Track quality 100.0 %
Test CRC 9D688261
Copy CRC 9D688261
Track not present in AccurateRip database
Copy OK
Track 5
Filename E:\!Rips\FUNK @ SOUL\Bad Mutha Goose and the Brothers Grimm - Tower Of Babel (ALPHA RECORDS) 1991\05 – Party Platform.wav
Peak level 99.7 %
Track quality 100.0 %
Test CRC 65D75B10
Copy CRC 65D75B10
Track not present in AccurateRip database
Copy OK
Track 6
Filename E:\!Rips\FUNK @ SOUL\Bad Mutha Goose and the Brothers Grimm - Tower Of Babel (ALPHA RECORDS) 1991\06 – Higher.wav
Peak level 97.7 %
Track quality 100.0 %
Test CRC 6F4C1E2C
Copy CRC 6F4C1E2C
Track not present in AccurateRip database
Copy OK
Track 7
Filename E:\!Rips\FUNK @ SOUL\Bad Mutha Goose and the Brothers Grimm - Tower Of Babel (ALPHA RECORDS) 1991\07 – Mighty Mighty.wav
Peak level 97.7 %
Track quality 100.0 %
Test CRC 8A61BB11
Copy CRC 8A61BB11
Track not present in AccurateRip database
Copy OK
Track 8
Filename E:\!Rips\FUNK @ SOUL\Bad Mutha Goose and the Brothers Grimm - Tower Of Babel (ALPHA RECORDS) 1991\08 – Pride.wav
Peak level 97.7 %
Track quality 100.0 %
Test CRC 88BFBC44
Copy CRC 88BFBC44
Track not present in AccurateRip database
Copy OK
Track 9
Filename E:\!Rips\FUNK @ SOUL\Bad Mutha Goose and the Brothers Grimm - Tower Of Babel (ALPHA RECORDS) 1991\09 – Bills.wav
Peak level 92.9 %
Track quality 99.9 %
Test CRC 0325CCD3
Copy CRC 0325CCD3
Track not present in AccurateRip database
Copy OK
Track 10
Filename E:\!Rips\FUNK @ SOUL\Bad Mutha Goose and the Brothers Grimm - Tower Of Babel (ALPHA RECORDS) 1991\10 – #1.wav
Peak level 92.8 %
Track quality 100.0 %
Test CRC 863CBEE9
Copy CRC 863CBEE9
Track not present in AccurateRip database
Copy OK
Track 11
Filename E:\!Rips\FUNK @ SOUL\Bad Mutha Goose and the Brothers Grimm - Tower Of Babel (ALPHA RECORDS) 1991\11 – Jump The Funk.wav
Peak level 97.7 %
Track quality 100.0 %
Test CRC 0DF23914
Copy CRC 0DF23914
Track not present in AccurateRip database
Copy OK
Track 12
Filename E:\!Rips\FUNK @ SOUL\Bad Mutha Goose and the Brothers Grimm - Tower Of Babel (ALPHA RECORDS) 1991\12 – 100%.wav
Peak level 97.7 %
Track quality 100.0 %
Test CRC CC20827F
Copy CRC CC20827F
Track not present in AccurateRip database
Copy OK
Track 13
Filename E:\!Rips\FUNK @ SOUL\Bad Mutha Goose and the Brothers Grimm - Tower Of Babel (ALPHA RECORDS) 1991\13 – (Afro Jam).wav
Peak level 97.7 %
Track quality 100.0 %
Test CRC 1C1942C1
Copy CRC 1C1942C1
Track not present in AccurateRip database
Copy OK
None of the tracks are present in the AccurateRip database
No errors occurred
End of status report
 
CUE
REM DATE 1991
REM DISCID BF0D8E0D
REM COMMENT "ExactAudioCopy v0.99pb5"
PERFORMER "Bad Mutha Goose And The Brothers Grimm"
TITLE "Tower Of Babel"
FILE "01 – Soul Food.wav" WAVE
TRACK 01 AUDIO
TITLE "Soul Food"
PERFORMER "Bad Mutha Goose And The Brothers Grimm"
INDEX 01 00:00:00
FILE "02 – Be Somebody.wav" WAVE
TRACK 02 AUDIO
TITLE "Be Somebody"
PERFORMER "Bad Mutha Goose And The Brothers Grimm"
INDEX 01 00:00:00
FILE "03 – Free Your Mind.wav" WAVE
TRACK 03 AUDIO
TITLE "Free Your Mind"
PERFORMER "Bad Mutha Goose And The Brothers Grimm"
INDEX 01 00:00:00
FILE "04 – Time To Get.wav" WAVE
TRACK 04 AUDIO
TITLE "Time To Get"
PERFORMER "Bad Mutha Goose And The Brothers Grimm"
INDEX 01 00:00:00
FILE "05 – Party Platform.wav" WAVE
TRACK 05 AUDIO
TITLE "Party Platform"
PERFORMER "Bad Mutha Goose And The Brothers Grimm"
INDEX 01 00:00:00
FILE "06 – Higher.wav" WAVE
TRACK 06 AUDIO
TITLE "Higher"
PERFORMER "Bad Mutha Goose And The Brothers Grimm"
INDEX 01 00:00:00
FILE "07 – Mighty Mighty.wav" WAVE
TRACK 07 AUDIO
TITLE "Mighty Mighty"
PERFORMER "Bad Mutha Goose And The Brothers Grimm"
INDEX 01 00:00:00
FILE "08 – Pride.wav" WAVE
TRACK 08 AUDIO
TITLE "Pride"
PERFORMER "Bad Mutha Goose And The Brothers Grimm"
INDEX 01 00:00:00
FILE "09 – Bills.wav" WAVE
TRACK 09 AUDIO
TITLE "Bills"
PERFORMER "Bad Mutha Goose And The Brothers Grimm"
INDEX 01 00:00:00
FILE "10 – #1.wav" WAVE
TRACK 10 AUDIO
TITLE "#1"
PERFORMER "Bad Mutha Goose And The Brothers Grimm"
INDEX 01 00:00:00
FILE "11 – Jump The Funk.wav" WAVE
TRACK 11 AUDIO
TITLE "Jump The Funk"
PERFORMER "Bad Mutha Goose And The Brothers Grimm"
INDEX 01 00:00:00
FILE "12 – 100%.wav" WAVE
TRACK 12 AUDIO
TITLE "100%"
PERFORMER "Bad Mutha Goose And The Brothers Grimm"
INDEX 01 00:00:00
FILE "13 – (Afro Jam).wav" WAVE
TRACK 13 AUDIO
TITLE "(Afro Jam)"
PERFORMER "Bad Mutha Goose And The Brothers Grimm"
INDEX 01 00:00:00
Приватный:
Нет (DHT включён)
Размер:
378.97 Мб (397,380,325 байт) » файлов: 18
Участники:
0 раздают, 0 качают (0 участников всего)
Внешние участники:
--- [ Обновить ]
Никого нет на раздаче - пишите личное сообщение M0p94ok
No seeders - write personal message to M0p94ok
02:56
14
Нет комментариев. Ваш будет первым!