Поиск

(Funky Soul / Smooth Soul) Lamont Dozier — The Legendary Lamont Dozier: Soul Master (1973/1974) - 2002, FLAC (image+.cue), lossless

(Funky Soul / Smooth Soul) Lamont Dozier — The Legendary Lamont Dozier: Soul Master (1973/1974) - 2002, FLAC (image+.cue), lossless
Треклист:
Lamont Dozier — The Legendary Lamont Dozier: Soul Master (1973/1974)
Жанр: Funky Soul / Smooth Soul
Год выпуска диска: 2002
Производитель диска: EU (ABC Rec.)
Аудио кодек: FLAC
Тип рипа: image+.cue
Битрейт аудио: lossless
Продолжительность: 73:22
Трэклист:
01. Fish Ain't Bitin' 04:19
02. Breaking Out All Over 05:01
03. Shine 05:49
04. Take Off Your Makeup 04:53
05. Let Me Make Love To You 05:51
06. Don't Want Nobody To Come Between Us 04:16
07. Put Out My Fire 04:36
08. I Wanna Be With You 05:55
09. Trying To Hold On To My Woman 04:27
10. Let Me Start Tonite 03:37
11. Rose 05:29
12. Blue Sky And Silver Bird 04:51
13. Thank You For The Dream 04:42
14. All Cried Out 04:34
15. Out Here On My Own 04:55
 
отчёт ЕАС
Exact Audio Copy V0.99 prebeta 4 from 23. January 2008
Отчёт EAC об извлечении, выполненном 14. марта 2010, 14:54
Dozier, Lamont / The Legendary Lamont Dozier: Soul Master
Дисковод: Optiarc DVD RW AD-7203S Adapter: 1 ID: 1
Режим чтения : Достоверность
Использование точного потока : Да
Отключение кэша аудио : Да
Использование указателей C2 : Нет
Коррекция смещения при чтении : 48
Способность читать области Lead-in и Lead-out : Нет
Заполнение пропущенных сэмплов тишиной : Да
Удаление блоков с тишиной в начале и конце : Нет
При вычислениях CRC использовались нулевые сэмплы : Да
Интерфейс : Встроенный Win32-интерфейс для Win NT/2000
Выходной формат : Пользовательский кодировщик
Выбранный битрейт : 1024 kBit/s
Качество : Высокий
Добавление ID3-тэга : Нет
Утилита сжатия : C:\Program Files\Exact Audio Copy\Flac\flac.exe
Дополнительные параметры : -V -8 -T "artist=%a" -T "title=%t" -T "album=%g" -T "date=%y" -T "tracknumber=%n" -T "genre=%m" %s
TOC извлечённого CD
Трек | Старт | Длительность | Начальный сектор | Конечный сектор
---------------------------------------------------------------------
1 | 0:00.00 | 4:19.34 | 0 | 19458
2 | 4:19.34 | 5:01.63 | 19459 | 42096
3 | 9:21.22 | 5:49.19 | 42097 | 68290
4 | 15:10.41 | 4:53.55 | 68291 | 90320
5 | 20:04.21 | 5:51.33 | 90321 | 116678
6 | 25:55.54 | 4:16.64 | 116679 | 135942
7 | 30:12.43 | 4:36.20 | 135943 | 156662
8 | 34:48.63 | 5:55.30 | 156663 | 183317
9 | 40:44.18 | 4:27.34 | 183318 | 203376
10 | 45:11.52 | 3:37.68 | 203377 | 219719
11 | 48:49.45 | 5:29.67 | 219720 | 244461
12 | 54:19.37 | 4:51.18 | 244462 | 266304
13 | 59:10.55 | 4:42.00 | 266305 | 287454
14 | 63:52.55 | 4:34.04 | 287455 | 308008
15 | 68:26.59 | 4:55.55 | 308009 | 330188
Характеристики диапазона извлечения и сообщения об ошибках
Выбранный диапазон
Имя файла D:\EAC-FOLDER\Dozier Lamont - Soul Master\Dozier Lamont - The Legendary Lamont Dozier Soul Master\Dozier, Lamont - The Legendary Lamont Dozier Soul Master.wav
Пиковый уровень 87.8 %
Качество диапазона 99.9 %
CRC теста 8DFF7959
CRC копии 8DFF7959
Копирование... OK
Ошибок не произошло
AccurateRip: сводка
Трек 1 нет в базе данных
Трек 2 нет в базе данных
Трек 3 нет в базе данных
Трек 4 нет в базе данных
Трек 5 нет в базе данных
Трек 6 нет в базе данных
Трек 7 нет в базе данных
Трек 8 нет в базе данных
Трек 9 нет в базе данных
Трек 10 нет в базе данных
Трек 11 нет в базе данных
Трек 12 нет в базе данных
Трек 13 нет в базе данных
Трек 14 нет в базе данных
Трек 15 нет в базе данных
Ни одного трека нет в базе AccurateRip
Конец отчёта
Доп. информация: 20 лет в "Зале Славы Рок-н-Ролла", прославленный автор огромного колличества хитов студии "Мотаун", обладатель выразительного голоса, талантливый продюсер — всё это даёт полное право Ламонту Дозье ставить перед своим именем слово "легендарный". Материал представляет собой сборник солных работ Ламонта пост-мотаунского периода (1973 и 1974 гг.) Рекомендовано всем поклонникам старого-доброго фанки-соула, а также любителям красивой позитивной качественной черной музыки.
PS Рип свой, внутри сканы.
Приватный:
Да (DHT отключён)
Размер:
451.85 Мб (473,802,343 байт) » файлов: 8
Участники:
0 раздают, 0 качают (0 участников всего)
Внешние участники:
3 раздают, 1 качают (4 участников всего) [ Обновить ]
Никого нет на раздаче - пишите личное сообщение M0p94ok
No seeders - write personal message to M0p94ok
02:57
17
Нет комментариев. Ваш будет первым!