Поиск

(Funk, Soul) [15xCD] Bobby Womack - 1989-2008, FLAC (tracks+.cue), lossless

(Funk, Soul) [15xCD] Bobby Womack - 1989-2008, FLAC (tracks+.cue), lossless
Треклист:
Bobby Womack
Жанр: Funk, Soul
Год выпуска дисков: 1989-2008
Аудио кодек: FLAC
Тип рипа: tracks+.cue
Битрейт аудио: lossless
Продолжительность: 14 hours 28 minutes44 seconds
19 10 2014 обновлено: добавлено 11 рипов со сканами (кроме "2008 - The Best").
Упорядочена структура раздачи."

Собственноручные рипы с оригинальных дисков от funky_cat! + xbt (с согласия релизёров)
 
1989 - Lookin' For A Love Again (1974) (Charly R&B - CD CHARLY 153)

Продолжительность: 31:23
01. Bobby Womack - Lookin' For A Love [02:39]
02. Bobby Womack - I Don't Wanna Be Hurt By Ya Love Again [03:25]
03. Bobby Womack - Doing It My Way [05:38]
04. Bobby Womack - Let It Hang Out [02:24]
05. Bobby Womack - Point Of No Return [02:45]
06. Bobby Womack - You're Welcome, Stop On By [03:43]
07. Bobby Womack - You're Messing Up A Good Thing [02:35]
08. Bobby Womack - Don't Let Me Down [02:05]
09. Bobby Womack - Copper Kettle [03:19]
10. Bobby Womack - There's One Thing That Beats Failing [02:44]
 
log and sheet
 
Log
Exact Audio Copy V0.99 prebeta 5 from 4. May 2009
EAC extraction logfile from 8. January 2010, 14:53
Bobby Womack / Lookin' For A Love Again
Used drive : Optiarc DVD RW AD-7240S Adapter: 0 ID: 1
Read mode : Secure
Utilize accurate stream : Yes
Defeat audio cache : Yes
Make use of C2 pointers : No
Read offset correction : 48
Overread into Lead-In and Lead-Out : No
Fill up missing offset samples with silence : Yes
Delete leading and trailing silent blocks : No
Null samples used in CRC calculations : Yes
Used interface : Native Win32 interface for Win NT & 2000
Gap handling : Appended to previous track
Used output format : User Defined Encoder
Selected bitrate : 128 kBit/s
Quality : High
Add ID3 tag : No
Command line compressor : C:\Program Files\FLAC\flac.exe
Additional command line options : -8 -V -T "ARTIST=%a" -T "TITLE=%t" -T "ALBUM=%g" -T "DATE=%y" -T "TRACKNUMBER=%n" -T "GENRE=%m" -T "COMMENT=EAC FLAC -8" %s
TOC of the extracted CD
Track | Start | Length | Start sector | End sector
---------------------------------------------------------
1 | 0:00.33 | 2:39.72 | 33 | 12029
2 | 2:40.30 | 3:25.60 | 12030 | 27464
3 | 6:06.15 | 5:38.53 | 27465 | 52867
4 | 11:44.68 | 2:24.10 | 52868 | 63677
5 | 14:09.03 | 2:45.37 | 63678 | 76089
6 | 16:54.40 | 3:43.28 | 76090 | 92842
7 | 20:37.68 | 2:35.52 | 92843 | 104519
8 | 23:13.45 | 2:05.40 | 104520 | 113934
9 | 25:19.10 | 3:19.70 | 113935 | 128929
10 | 28:39.05 | 2:44.55 | 128930 | 141284
Track 1
Filename E:\EAC rips\01 - Lookin' For A Love.wav
Pre-gap length 0:00:02.44
Peak level 92.9 %
Track quality 100.0 %
Test CRC DD4FF263
Copy CRC DD4FF263
Accurately ripped (confidence 1) [50C58403]
Copy OK
Track 2
Filename E:\EAC rips\02 - I Don't Wanna Be Hurt By Ya Love Again.wav
Peak level 91.5 %
Track quality 100.0 %
Test CRC 0D4552FF
Copy CRC 0D4552FF
Accurately ripped (confidence 1) [BFE09170]
Copy OK
Track 3
Filename E:\EAC rips\03 - Doing It My Way.wav
Pre-gap length 0:00:01.49
Peak level 84.7 %
Track quality 99.9 %
Test CRC 9F2A5197
Copy CRC 9F2A5197
Cannot be verified as accurate (confidence 1) [B9961BAD], AccurateRip returned [5D901BAD]
Copy OK
Track 4
Filename E:\EAC rips\04 - Let It Hang Out.wav
Pre-gap length 0:00:02.13
Peak level 86.4 %
Track quality 99.9 %
Test CRC 6DDFA778
Copy CRC 6DDFA778
Accurately ripped (confidence 1) [00178787]
Copy OK
Track 5
Filename E:\EAC rips\05 - Point Of No Return.wav
Pre-gap length 0:00:01.53
Peak level 74.7 %
Track quality 100.0 %
Test CRC A371647C
Copy CRC A371647C
Accurately ripped (confidence 1) [7DD8AFC8]
Copy OK
Track 6
Filename E:\EAC rips\06 - You're Welcome, Stop On By.wav
Pre-gap length 0:00:02.29
Peak level 86.2 %
Track quality 100.0 %
Test CRC 7C19167D
Copy CRC 7C19167D
Accurately ripped (confidence 1) [D1C535FC]
Copy OK
Track 7
Filename E:\EAC rips\07 - You're Messing Up A Good Thing.wav
Peak level 84.5 %
Track quality 100.0 %
Test CRC 9B51F698
Copy CRC 9B51F698
Accurately ripped (confidence 1) [9C12E1C7]
Copy OK
Track 8
Filename E:\EAC rips\08 - Don't Let Me Down.wav
Pre-gap length 0:00:01.16
Peak level 85.1 %
Track quality 99.9 %
Test CRC E54AB7D4
Copy CRC E54AB7D4
Accurately ripped (confidence 1) [7015DAEC]
Copy OK
Track 9
Filename E:\EAC rips\09 - Copper Kettle.wav
Pre-gap length 0:00:00.60
Peak level 77.0 %
Track quality 100.0 %
Test CRC 8AAA4CA2
Copy CRC 8AAA4CA2
Accurately ripped (confidence 1) [5F1B5FF8]
Copy OK
Track 10
Filename E:\EAC rips\10 - There's One Thing That Beats Failing.wav
Pre-gap length 0:00:01.66
Peak level 83.9 %
Track quality 99.9 %
Test CRC 24D89426
Copy CRC 24D89426
Accurately ripped (confidence 1) [F0654EB6]
Copy OK
9 track(s) accurately ripped
1 track(s) could not be verified as accurate
Some tracks could not be verified as accurate
No errors occurred
End of status report
 
CUE
REM GENRE Funk
REM DATE 1974
REM DISCID 74075B0A
REM COMMENT "ExactAudioCopy v0.99pb5"
PERFORMER "Bobby Womack"
TITLE "Lookin' For A Love Again"
FILE "01 - Lookin' For A Love.wav" WAVE
TRACK 01 AUDIO
TITLE "Lookin' For A Love"
PERFORMER "Bobby Womack"
PREGAP 00:00:33
INDEX 01 00:00:00
FILE "02 - I Don't Wanna Be Hurt By Ya Love Again.wav" WAVE
TRACK 02 AUDIO
TITLE "I Don't Wanna Be Hurt By Ya Love Again"
PERFORMER "Bobby Womack"
INDEX 01 00:00:00
TRACK 03 AUDIO
TITLE "Doing It My Way"
PERFORMER "Bobby Womack"
INDEX 00 03:24:23
FILE "03 - Doing It My Way.wav" WAVE
INDEX 01 00:00:00
TRACK 04 AUDIO
TITLE "Let It Hang Out"
PERFORMER "Bobby Womack"
INDEX 00 05:36:43
FILE "04 - Let It Hang Out.wav" WAVE
INDEX 01 00:00:00
TRACK 05 AUDIO
TITLE "Point Of No Return"
PERFORMER "Bobby Womack"
INDEX 00 02:22:45
FILE "05 - Point Of No Return.wav" WAVE
INDEX 01 00:00:00
TRACK 06 AUDIO
TITLE "You're Welcome, Stop On By"
PERFORMER "Bobby Womack"
INDEX 00 02:43:15
FILE "06 - You're Welcome, Stop On By.wav" WAVE
INDEX 01 00:00:00
FILE "07 - You're Messing Up A Good Thing.wav" WAVE
TRACK 07 AUDIO
TITLE "You're Messing Up A Good Thing"
PERFORMER "Bobby Womack"
INDEX 01 00:00:00
TRACK 08 AUDIO
TITLE "Don't Let Me Down"
PERFORMER "Bobby Womack"
INDEX 00 02:34:40
FILE "08 - Don't Let Me Down.wav" WAVE
INDEX 01 00:00:00
TRACK 09 AUDIO
TITLE "Copper Kettle"
PERFORMER "Bobby Womack"
INDEX 00 02:04:70
FILE "09 - Copper Kettle.wav" WAVE
INDEX 01 00:00:00
TRACK 10 AUDIO
TITLE "There's One Thing That Beats Failing"
PERFORMER "Bobby Womack"
INDEX 00 03:18:20
FILE "10 - There's One Thing That Beats Failing.wav" WAVE
INDEX 01 00:00:00
 
1989 - Save The Children (Solar - CDSOL 510)

Продолжительность: 48:47
01. Bobby Womack - Save The Children [06:31]
02. Bobby Womack - Priorities [05:24]
03. Bobby Womack - Too Close For Comfort [04:49]
04. Bobby Womack - Baby I'm Back [04:36]
05. Bobby Womack - She's My Girl [03:59]
06. Bobby Womack - Free Love [06:02]
07. Bobby Womack - How Can It Be [04:38]
08. Bobby Womack - Tough Job [04:16]
09. Bobby Womack - Now We're Together [03:47]
10. Bobby Womack - Better Love (Everybody's Looking For A Better Love) [04:40]
 
log and sheet
 
Log
Exact Audio Copy V0.99 prebeta 5 from 4. May 2009
EAC extraction logfile from 8. January 2010, 17:39
Bobby Womack / Save The Children
Used drive : Optiarc DVD RW AD-7240S Adapter: 0 ID: 1
Read mode : Secure
Utilize accurate stream : Yes
Defeat audio cache : Yes
Make use of C2 pointers : No
Read offset correction : 48
Overread into Lead-In and Lead-Out : No
Fill up missing offset samples with silence : Yes
Delete leading and trailing silent blocks : No
Null samples used in CRC calculations : Yes
Used interface : Native Win32 interface for Win NT & 2000
Gap handling : Appended to previous track
Used output format : User Defined Encoder
Selected bitrate : 128 kBit/s
Quality : High
Add ID3 tag : No
Command line compressor : C:\Program Files\FLAC\flac.exe
Additional command line options : -8 -V -T "ARTIST=%a" -T "TITLE=%t" -T "ALBUM=%g" -T "DATE=%y" -T "TRACKNUMBER=%n" -T "GENRE=%m" -T "COMMENT=EAC FLAC -8" %s
TOC of the extracted CD
Track | Start | Length | Start sector | End sector
---------------------------------------------------------
1 | 0:00.32 | 6:31.65 | 32 | 29421
2 | 6:32.22 | 5:24.18 | 29422 | 53739
3 | 11:56.40 | 4:49.67 | 53740 | 75481
4 | 16:46.32 | 4:36.03 | 75482 | 96184
5 | 21:22.35 | 3:59.15 | 96185 | 114124
6 | 25:21.50 | 6:02.17 | 114125 | 141291
7 | 31:23.67 | 4:38.45 | 141292 | 162186
8 | 36:02.37 | 4:16.48 | 162187 | 181434
9 | 40:19.10 | 3:47.42 | 181435 | 198501
10 | 44:06.52 | 4:40.65 | 198502 | 219566
Track 1
Filename E:\EAC rips\01 - Save The Children.wav
Pre-gap length 0:00:02.42
Peak level 88.9 %
Track quality 100.0 %
Test CRC E833277A
Copy CRC E833277A
Track not present in AccurateRip database
Copy OK
Track 2
Filename E:\EAC rips\02 - Priorities.wav
Peak level 91.2 %
Track quality 100.0 %
Test CRC 47013FF4
Copy CRC 47013FF4
Track not present in AccurateRip database
Copy OK
Track 3
Filename E:\EAC rips\03 - Too Close For Comfort.wav
Peak level 93.5 %
Track quality 99.9 %
Test CRC 127F44F6
Copy CRC 127F44F6
Track not present in AccurateRip database
Copy OK
Track 4
Filename E:\EAC rips\04 - Baby I'm Back.wav
Peak level 92.0 %
Track quality 100.0 %
Test CRC 5E10B486
Copy CRC 5E10B486
Track not present in AccurateRip database
Copy OK
Track 5
Filename E:\EAC rips\05 - She's My Girl.wav
Peak level 92.1 %
Track quality 100.0 %
Test CRC B34FB698
Copy CRC B34FB698
Track not present in AccurateRip database
Copy OK
Track 6
Filename E:\EAC rips\06 - Free Love.wav
Peak level 96.2 %
Track quality 100.0 %
Test CRC 2906470A
Copy CRC 2906470A
Track not present in AccurateRip database
Copy OK
Track 7
Filename E:\EAC rips\07 - How Can It Be.wav
Peak level 96.3 %
Track quality 99.9 %
Test CRC 6289A0B2
Copy CRC 6289A0B2
Track not present in AccurateRip database
Copy OK
Track 8
Filename E:\EAC rips\08 - Tough Job.wav
Peak level 98.2 %
Track quality 100.0 %
Test CRC A5BF6550
Copy CRC A5BF6550
Track not present in AccurateRip database
Copy OK
Track 9
Filename E:\EAC rips\09 - Now We're Together.wav
Peak level 97.7 %
Track quality 100.0 %
Test CRC CAD6C6F3
Copy CRC CAD6C6F3
Track not present in AccurateRip database
Copy OK
Track 10
Filename E:\EAC rips\10 - Better Love (Everybody's Looking For A Better Love).wav
Peak level 98.2 %
Track quality 100.0 %
Test CRC 0A29DD94
Copy CRC 0A29DD94
Track not present in AccurateRip database
Copy OK
None of the tracks are present in the AccurateRip database
No errors occurred
End of status report
 
CUE
REM GENRE Blues
REM DATE 1989
REM DISCID 850B6F0A
REM COMMENT "ExactAudioCopy v0.99pb5"
PERFORMER "Bobby Womack"
TITLE "Save The Children"
FILE "01 - Save The Children.wav" WAVE
TRACK 01 AUDIO
TITLE "Save The Children"
PERFORMER "Bobby Womack"
PREGAP 00:00:32
INDEX 01 00:00:00
FILE "02 - Priorities.wav" WAVE
TRACK 02 AUDIO
TITLE "Priorities"
PERFORMER "Bobby Womack"
INDEX 01 00:00:00
FILE "03 - Too Close For Comfort.wav" WAVE
TRACK 03 AUDIO
TITLE "Too Close For Comfort"
PERFORMER "Bobby Womack"
INDEX 01 00:00:00
FILE "04 - Baby I'm Back.wav" WAVE
TRACK 04 AUDIO
TITLE "Baby I'm Back"
PERFORMER "Bobby Womack"
INDEX 01 00:00:00
FILE "05 - She's My Girl.wav" WAVE
TRACK 05 AUDIO
TITLE "She's My Girl"
PERFORMER "Bobby Womack"
INDEX 01 00:00:00
FILE "06 - Free Love.wav" WAVE
TRACK 06 AUDIO
TITLE "Free Love"
PERFORMER "Bobby Womack"
INDEX 01 00:00:00
FILE "07 - How Can It Be.wav" WAVE
TRACK 07 AUDIO
TITLE "How Can It Be"
PERFORMER "Bobby Womack"
INDEX 01 00:00:00
FILE "08 - Tough Job.wav" WAVE
TRACK 08 AUDIO
TITLE "Tough Job"
PERFORMER "Bobby Womack"
INDEX 01 00:00:00
FILE "09 - Now We're Together.wav" WAVE
TRACK 09 AUDIO
TITLE "Now We're Together"
PERFORMER "Bobby Womack"
INDEX 01 00:00:00
FILE "10 - Better Love (Everybody's Looking For A Better Love).wav" WAVE
TRACK 10 AUDIO
TITLE "Better Love (Everybody's Looking For A Better Love)"
PERFORMER "Bobby Womack"
INDEX 01 00:00:00
 
1993 - Lookin' For A Love, The Best Of Bobby Womack 1968 -1975 (EMI - Re 2009)

Продолжительность: 45:18
01. Bobby Womack - What Is This? [02:34]
02. Bobby Womack - How I Miss You Baby [03:17]
03. Bobby Womack - More Than I Can Stand [02:50]
04. Bobby Womack - I'm Gonna Forget About You [02:26]
05. Bobby Womack - That's The Way I Feel About 'Cha [03:13]
06. Bobby Womack - Woman's Gotta Have It [03:30]
07. Bobby Womack - Harry Hippie [03:52]
08. Bobby Womack - Across 110Th Street [03:50]
09. Bobby Womack - Nobody Wants You When You're Down And Out [03:00]
10. Bobby Womack - Lookin' For A Love [02:40]
11. Bobby Womack - You're Welcome, Stop On By [03:45]
12. Bobby Womack - Check It Out [03:51]
13. Bobby Womack - It's All Over Now [02:54]
14. Bobby Womack - Daylight [03:31]
 
log and sheet
 
Log
Exact Audio Copy V0.99 prebeta 4 from 23. January 2008
EAC extraction logfile from 4. October 2009, 9:22
Bobby Womack / Lookin' For A Love, The Best Of Bobby Womack 1968 -1975
Used drive : PIONEER DVD+-RW DR-K17Y Adapter: 0 ID: 0
Read mode : Secure
Utilize accurate stream : Yes
Defeat audio cache : Yes
Make use of C2 pointers : No
Read offset correction : 48
Overread into Lead-In and Lead-Out : No
Fill up missing offset samples with silence : Yes
Delete leading and trailing silent blocks : No
Null samples used in CRC calculations : Yes
Used interface : Native Win32 interface for Win NT & 2000
Gap handling : Appended to previous track
Used output format : User Defined Encoder
Selected bitrate : 768 kBit/s
Quality : High
Add ID3 tag : No
Command line compressor : C:\Program Files\Exact Audio Copy\FLAC\FLAC.EXE
Additional command line options : -8 -V -T "ARTIST=%a" -T "TITLE=%t" -T "ALBUM=%g" -T "DATE=%y" -T "TRACKNUMBER=%n" -T "GENRE=%m" -T "COMMENT=EAC FLAC -8" %s
TOC of the extracted CD
Track | Start | Length | Start sector | End sector
---------------------------------------------------------
1 | 0:00.00 | 2:34.72 | 0 | 11621
2 | 2:34.72 | 3:17.65 | 11622 | 26461
3 | 5:52.62 | 2:50.50 | 26462 | 39261
4 | 8:43.37 | 2:26.05 | 39262 | 50216
5 | 11:09.42 | 3:13.20 | 50217 | 64711
6 | 14:22.62 | 3:30.05 | 64712 | 80466
7 | 17:52.67 | 3:52.10 | 80467 | 97876
8 | 21:45.02 | 3:50.00 | 97877 | 115126
9 | 25:35.02 | 3:00.05 | 115127 | 128631
10 | 28:35.07 | 2:40.20 | 128632 | 140651
11 | 31:15.27 | 3:45.60 | 140652 | 157586
12 | 35:01.12 | 3:51.43 | 157587 | 174954
13 | 38:52.55 | 2:54.60 | 174955 | 188064
14 | 41:47.40 | 3:31.05 | 188065 | 203894
Track 1
Filename C:\UPS\Bobby Womack - Lookin' For A Love, The Best Of Bobby Womack 1968 -1975 (1993) [FLAC]\01 - What Is This .wav
Pre-gap length 0:00:02.00
Peak level 48.4 %
Track quality 100.0 %
Test CRC 38DFE902
Copy CRC 38DFE902
Track not present in AccurateRip database
Copy OK
Track 2
Filename C:\UPS\Bobby Womack - Lookin' For A Love, The Best Of Bobby Womack 1968 -1975 (1993) [FLAC]\02 - How I Miss You Baby.wav
Pre-gap length 0:00:01.22
Peak level 85.8 %
Track quality 100.0 %
Test CRC 4E146806
Copy CRC 4E146806
Track not present in AccurateRip database
Copy OK
Track 3
Filename C:\UPS\Bobby Womack - Lookin' For A Love, The Best Of Bobby Womack 1968 -1975 (1993) [FLAC]\03 - More Than I Can Stand.wav
Pre-gap length 0:00:01.29
Peak level 73.7 %
Track quality 99.9 %
Test CRC 39FC988B
Copy CRC 39FC988B
Track not present in AccurateRip database
Copy OK
Track 4
Filename C:\UPS\Bobby Womack - Lookin' For A Love, The Best Of Bobby Womack 1968 -1975 (1993) [FLAC]\04 - I'm Gonna Forget About You.wav
Pre-gap length 0:00:01.26
Peak level 65.5 %
Track quality 100.0 %
Test CRC DC23AED6
Copy CRC DC23AED6
Track not present in AccurateRip database
Copy OK
Track 5
Filename C:\UPS\Bobby Womack - Lookin' For A Love, The Best Of Bobby Womack 1968 -1975 (1993) [FLAC]\05 - That's The Way I Feel About 'Cha.wav
Pre-gap length 0:00:01.29
Peak level 58.7 %
Track quality 99.9 %
Test CRC BE759122
Copy CRC BE759122
Track not present in AccurateRip database
Copy OK
Track 6
Filename C:\UPS\Bobby Womack - Lookin' For A Love, The Best Of Bobby Womack 1968 -1975 (1993) [FLAC]\06 - Woman's Gotta Have It.wav
Pre-gap length 0:00:01.29
Peak level 67.7 %
Track quality 100.0 %
Test CRC 69D1BCCE
Copy CRC 69D1BCCE
Track not present in AccurateRip database
Copy OK
Track 7
Filename C:\UPS\Bobby Womack - Lookin' For A Love, The Best Of Bobby Womack 1968 -1975 (1993) [FLAC]\07 - Harry Hippie.wav
Pre-gap length 0:00:01.26
Peak level 84.2 %
Track quality 100.0 %
Test CRC A038046E
Copy CRC A038046E
Track not present in AccurateRip database
Copy OK
Track 8
Filename C:\UPS\Bobby Womack - Lookin' For A Love, The Best Of Bobby Womack 1968 -1975 (1993) [FLAC]\08 - Across 110Th Street.wav
Pre-gap length 0:00:01.16
Peak level 62.7 %
Track quality 100.0 %
Test CRC 4414F280
Copy CRC 4414F280
Track not present in AccurateRip database
Copy OK
Track 9
Filename C:\UPS\Bobby Womack - Lookin' For A Love, The Best Of Bobby Womack 1968 -1975 (1993) [FLAC]\09 - Nobody Wants You When You're Down And Out.wav
Pre-gap length 0:00:01.26
Peak level 55.8 %
Track quality 100.0 %
Test CRC 95283C74
Copy CRC 95283C74
Track not present in AccurateRip database
Copy OK
Track 10
Filename C:\UPS\Bobby Womack - Lookin' For A Love, The Best Of Bobby Womack 1968 -1975 (1993) [FLAC]\10 - Lookin' For A Love.wav
Pre-gap length 0:00:01.20
Peak level 57.0 %
Track quality 100.0 %
Test CRC 25918A4D
Copy CRC 25918A4D
Track not present in AccurateRip database
Copy OK
Track 11
Filename C:\UPS\Bobby Womack - Lookin' For A Love, The Best Of Bobby Womack 1968 -1975 (1993) [FLAC]\11 - You're Welcome, Stop On By.wav
Pre-gap length 0:00:01.40
Peak level 51.6 %
Track quality 99.9 %
Test CRC 4468ECE0
Copy CRC 4468ECE0
Track not present in AccurateRip database
Copy OK
Track 12
Filename C:\UPS\Bobby Womack - Lookin' For A Love, The Best Of Bobby Womack 1968 -1975 (1993) [FLAC]\12 - Check It Out.wav
Pre-gap length 0:00:01.20
Peak level 59.7 %
Track quality 100.0 %
Test CRC 9773089E
Copy CRC 9773089E
Track not present in AccurateRip database
Copy OK
Track 13
Filename C:\UPS\Bobby Womack - Lookin' For A Love, The Best Of Bobby Womack 1968 -1975 (1993) [FLAC]\13 - It's All Over Now.wav
Pre-gap length 0:00:01.24
Peak level 45.4 %
Track quality 100.0 %
Test CRC 64713C66
Copy CRC 64713C66
Track not present in AccurateRip database
Copy OK
Track 14
Filename C:\UPS\Bobby Womack - Lookin' For A Love, The Best Of Bobby Womack 1968 -1975 (1993) [FLAC]\14 - Daylight.wav
Pre-gap length 0:00:01.33
Peak level 48.5 %
Track quality 100.0 %
Test CRC C398F3DE
Copy CRC C398F3DE
Track not present in AccurateRip database
Copy OK
None of the tracks are present in the AccurateRip database
No errors occurred
End of status report
 
CUE
REM GENRE Soul
REM DATE 1993
REM DISCID B60A9E0E
REM COMMENT "ExactAudioCopy v0.99pb4"
PERFORMER "Bobby Womack"
TITLE "Lookin' For A Love, The Best Of Bobby Womack 1968 -1975"
FILE "01 - What Is This .wav" WAVE
TRACK 01 AUDIO
TITLE "What Is This?"
PERFORMER "Bobby Womack"
INDEX 01 00:00:00
TRACK 02 AUDIO
TITLE "How I Miss You Baby"
PERFORMER "Bobby Womack"
INDEX 00 02:33:55
FILE "02 - How I Miss You Baby.wav" WAVE
INDEX 01 00:00:00
TRACK 03 AUDIO
TITLE "More Than I Can Stand"
PERFORMER "Bobby Womack"
INDEX 00 03:16:43
FILE "03 - More Than I Can Stand.wav" WAVE
INDEX 01 00:00:00
TRACK 04 AUDIO
TITLE "I'm Gonna Forget About You"
PERFORMER "Bobby Womack"
INDEX 00 02:49:30
FILE "04 - I'm Gonna Forget About You.wav" WAVE
INDEX 01 00:00:00
TRACK 05 AUDIO
TITLE "That's The Way I Feel About 'Cha"
PERFORMER "Bobby Womack"
INDEX 00 02:24:58
FILE "05 - That's The Way I Feel About 'Cha.wav" WAVE
INDEX 01 00:00:00
TRACK 06 AUDIO
TITLE "Woman's Gotta Have It"
PERFORMER "Bobby Womack"
INDEX 00 03:11:73
FILE "06 - Woman's Gotta Have It.wav" WAVE
INDEX 01 00:00:00
TRACK 07 AUDIO
TITLE "Harry Hippie"
PERFORMER "Bobby Womack"
INDEX 00 03:28:60
FILE "07 - Harry Hippie.wav" WAVE
INDEX 01 00:00:00
TRACK 08 AUDIO
TITLE "Across 110Th Street"
PERFORMER "Bobby Womack"
INDEX 00 03:50:73
FILE "08 - Across 110Th Street.wav" WAVE
INDEX 01 00:00:00
TRACK 09 AUDIO
TITLE "Nobody Wants You When You're Down And Out"
PERFORMER "Bobby Womack"
INDEX 00 03:48:55
FILE "09 - Nobody Wants You When You're Down And Out.wav" WAVE
INDEX 01 00:00:00
TRACK 10 AUDIO
TITLE "Lookin' For A Love"
PERFORMER "Bobby Womack"
INDEX 00 02:58:65
FILE "10 - Lookin' For A Love.wav" WAVE
INDEX 01 00:00:00
TRACK 11 AUDIO
TITLE "You're Welcome, Stop On By"
PERFORMER "Bobby Womack"
INDEX 00 02:38:65
FILE "11 - You're Welcome, Stop On By.wav" WAVE
INDEX 01 00:00:00
TRACK 12 AUDIO
TITLE "Check It Out"
PERFORMER "Bobby Womack"
INDEX 00 03:44:45
FILE "12 - Check It Out.wav" WAVE
INDEX 01 00:00:00
TRACK 13 AUDIO
TITLE "It's All Over Now"
PERFORMER "Bobby Womack"
INDEX 00 03:50:25
FILE "13 - It's All Over Now.wav" WAVE
INDEX 01 00:00:00
TRACK 14 AUDIO
TITLE "Daylight"
PERFORMER "Bobby Womack"
INDEX 00 02:53:35
FILE "14 - Daylight.wav" WAVE
INDEX 01 00:00:00
 
1993 - The Poet (1981) (Beverly Glen Music - BGD-10000)

Продолжительность: 40:07
01. Bobby Womack - So Many Sides Of You [03:49]
02. Bobby Womack - Lay Your Lovin' On Me [04:10]
03. Bobby Womack - Secrets [03:55]
04. Bobby Womack - Just My Imagination [05:16]
05. Bobby Womack - Stand Up [03:34]
06. Bobby Womack - Games [07:02]
07. Bobby Womack - If You Think You're Lonely Now [05:36]
08. Bobby Womack - Where Do We Go From Here [06:42]
 
log and sheet
 
Log
Exact Audio Copy V0.99 prebeta 5 from 4. May 2009
EAC extraction logfile from 4. March 2010, 12:03
Bobby Womack / The Poet
Used drive : Optiarc DVD RW AD-7240S Adapter: 0 ID: 1
Read mode : Secure
Utilize accurate stream : Yes
Defeat audio cache : Yes
Make use of C2 pointers : No
Read offset correction : 48
Overread into Lead-In and Lead-Out : No
Fill up missing offset samples with silence : Yes
Delete leading and trailing silent blocks : No
Null samples used in CRC calculations : Yes
Used interface : Native Win32 interface for Win NT & 2000
Gap handling : Appended to previous track
Used output format : User Defined Encoder
Selected bitrate : 128 kBit/s
Quality : High
Add ID3 tag : No
Command line compressor : C:\Program Files\FLAC\flac.exe
Additional command line options : -8 -V -T "ARTIST=%a" -T "TITLE=%t" -T "ALBUM=%g" -T "DATE=%y" -T "TRACKNUMBER=%n" -T "GENRE=%m" -T "COMMENT=EAC FLAC -8" %s
TOC of the extracted CD
Track | Start | Length | Start sector | End sector
---------------------------------------------------------
1 | 0:00.00 | 3:49.67 | 0 | 17241
2 | 3:49.67 | 4:10.40 | 17242 | 36031
3 | 8:00.32 | 3:55.38 | 36032 | 53694
4 | 11:55.70 | 5:16.22 | 53695 | 77416
5 | 17:12.17 | 3:34.65 | 77417 | 93531
6 | 20:47.07 | 7:02.10 | 93532 | 125191
7 | 27:49.17 | 5:36.40 | 125192 | 150431
8 | 33:25.57 | 6:42.10 | 150432 | 180591
Track 1
Filename E:\EAC rips\01 - So Many Sides Of You.wav
Pre-gap length 0:00:02.00
Peak level 83.9 %
Track quality 100.0 %
Test CRC 3400AD13
Copy CRC 3400AD13
Accurately ripped (confidence 2) [8F8AE9F1]
Copy OK
Track 2
Filename E:\EAC rips\02 - Lay Your Lovin' On Me.wav
Pre-gap length 0:00:01.33
Peak level 70.5 %
Track quality 100.0 %
Test CRC 661A9CA9
Copy CRC 661A9CA9
Accurately ripped (confidence 2) [80A47978]
Copy OK
Track 3
Filename E:\EAC rips\03 - Secrets.wav
Pre-gap length 0:00:02.09
Peak level 73.3 %
Track quality 100.0 %
Test CRC 6F44EED2
Copy CRC 6F44EED2
Accurately ripped (confidence 2) [9A34E03A]
Copy OK
Track 4
Filename E:\EAC rips\04 - Just My Imagination.wav
Pre-gap length 0:00:00.50
Peak level 69.1 %
Track quality 100.0 %
Test CRC 3DBB7D40
Copy CRC 3DBB7D40
Accurately ripped (confidence 2) [43E0AB11]
Copy OK
Track 5
Filename E:\EAC rips\05 - Stand Up.wav
Pre-gap length 0:00:02.49
Peak level 82.5 %
Track quality 99.9 %
Test CRC 03340338
Copy CRC 03340338
Accurately ripped (confidence 2) [90A42E1C]
Copy OK
Track 6
Filename E:\EAC rips\06 - Games.wav
Peak level 79.3 %
Track quality 100.0 %
Test CRC 38570725
Copy CRC 38570725
Accurately ripped (confidence 2) [3E944318]
Copy OK
Track 7
Filename E:\EAC rips\07 - If You Think You're Lonely Now.wav
Pre-gap length 0:00:02.80
Peak level 88.7 %
Track quality 100.0 %
Test CRC 18CC5CDF
Copy CRC 18CC5CDF
Accurately ripped (confidence 2) [73FA6297]
Copy OK
Track 8
Filename E:\EAC rips\08 - Where Do We Go From Here.wav
Pre-gap length 0:00:03.26
Peak level 76.7 %
Track quality 99.9 %
Test CRC 87EEF68B
Copy CRC 87EEF68B
Accurately ripped (confidence 2) [EFC38DC4]
Copy OK
All tracks accurately ripped
No errors occurred
End of status report
 
CUE
REM GENRE Soul
REM DISCID 55096708
REM COMMENT "ExactAudioCopy v0.99pb5"
PERFORMER "Bobby Womack"
TITLE "The Poet"
FILE "01 - So Many Sides Of You.wav" WAVE
TRACK 01 AUDIO
TITLE "So Many Sides Of You "
PERFORMER "Bobby Womack"
INDEX 01 00:00:00
TRACK 02 AUDIO
TITLE "Lay Your Lovin' On Me"
PERFORMER "Bobby Womack"
INDEX 00 03:48:42
FILE "02 - Lay Your Lovin' On Me.wav" WAVE
INDEX 01 00:00:00
TRACK 03 AUDIO
TITLE "Secrets"
PERFORMER "Bobby Womack"
INDEX 00 04:08:33
FILE "03 - Secrets.wav" WAVE
INDEX 01 00:00:00
TRACK 04 AUDIO
TITLE "Just My Imagination"
PERFORMER "Bobby Womack"
INDEX 00 03:55:00
FILE "04 - Just My Imagination.wav" WAVE
INDEX 01 00:00:00
TRACK 05 AUDIO
TITLE "Stand Up"
PERFORMER "Bobby Womack"
INDEX 00 05:13:60
FILE "05 - Stand Up.wav" WAVE
INDEX 01 00:00:00
FILE "06 - Games.wav" WAVE
TRACK 06 AUDIO
TITLE "Games"
PERFORMER "Bobby Womack"
INDEX 01 00:00:00
TRACK 07 AUDIO
TITLE "If You Think You're Lonely Now"
PERFORMER "Bobby Womack"
INDEX 00 06:59:25
FILE "07 - If You Think You're Lonely Now.wav" WAVE
INDEX 01 00:00:00
TRACK 08 AUDIO
TITLE "Where Do We Go From Here"
PERFORMER "Bobby Womack"
INDEX 00 05:33:20
FILE "08 - Where Do We Go From Here.wav" WAVE
INDEX 01 00:00:00
 
1994 - The Poet II (CPCD 8055)
Продолжительность: 41 min 19 sec
1.Love Has Finally Come At Last (5:34)
2.It Takes A Lot Of Strength To Say Goodbye (3:52)
3.Through The Eyes Of A Child (5:14)
4.Surprise, Surprise (3:39)
5.Tryin' To Get Over You (4:15)
6.Tell Me Why (6:15)
7.Who's Foolin' Who (4:05)
8.I Wish I Had Someone To Go Home To (3:43)
9.American Dream (4:42)
 
Log EAC
Exact Audio Copy V0.99 prebeta 5 from 4. May 2009
EAC extraction logfile from 7. March 2010, 12:04
Bobby Womack / The Poet II / Featuring Patti LaBelle
Used drive : ASUS CB-5216A Adapter: 0 ID: 1
Read mode : Secure
Utilize accurate stream : Yes
Defeat audio cache : Yes
Make use of C2 pointers : No
Read offset correction : 6
Overread into Lead-In and Lead-Out : No
Fill up missing offset samples with silence : Yes
Delete leading and trailing silent blocks : No
Null samples used in CRC calculations : Yes
Used interface : Native Win32 interface for Win NT & 2000
Gap handling : Appended to previous track
Used output format : User Defined Encoder
Selected bitrate : 320 kBit/s
Quality : High
Add ID3 tag : No
Command line compressor : C:\Program Files\FLAC\flac.exe
Additional command line options : -5 -V -T "ARTIST=%a" -T "TITLE=%t" -T "ALBUM=%g" -T "DATE=%y" -T "TRACKNUMBER=%n" -T "GENRE=%m" -T "COMMENT=Ripped By andygrakoff aka yetiisyou" %s
TOC of the extracted CD
Track | Start | Length | Start sector | End sector
---------------------------------------------------------
1 | 0:00.00 | 5:34.38 | 0 | 25087
2 | 5:34.38 | 3:52.17 | 25088 | 42504
3 | 9:26.55 | 5:14.13 | 42505 | 66067
4 | 14:40.68 | 3:39.42 | 66068 | 82534
5 | 18:20.35 | 4:15.68 | 82535 | 101727
6 | 22:36.28 | 6:15.72 | 101728 | 129924
7 | 28:52.25 | 4:05.18 | 129925 | 148317
8 | 32:57.43 | 3:43.47 | 148318 | 165089
9 | 36:41.15 | 4:42.10 | 165090 | 186249
Track 1
Filename E:\!Rips\FUNK @ SOUL\Bobby Womack - (The Poet II) CPCD 8055\01 – Love Has Finally Come At Last.wav
Pre-gap length 0:00:02.00
Peak level 95.4 %
Track quality 100.0 %
Test CRC DCF03EB6
Copy CRC DCF03EB6
Accurately ripped (confidence 2) [BF46D4A0]
Copy OK
Track 2
Filename E:\!Rips\FUNK @ SOUL\Bobby Womack - (The Poet II) CPCD 8055\02 – It Takes A Lot Of Strength To Say Goodbye.wav
Pre-gap length 0:00:02.00
Peak level 90.9 %
Track quality 100.0 %
Test CRC 8D38DAAD
Copy CRC 8D38DAAD
Accurately ripped (confidence 2) [7974F1A7]
Copy OK
Track 3
Filename E:\!Rips\FUNK @ SOUL\Bobby Womack - (The Poet II) CPCD 8055\03 – Through The Eyes Of A Child.wav
Pre-gap length 0:00:02.00
Peak level 95.5 %
Track quality 100.0 %
Test CRC C8785DF2
Copy CRC C8785DF2
Accurately ripped (confidence 2) [5110C2C6]
Copy OK
Track 4
Filename E:\!Rips\FUNK @ SOUL\Bobby Womack - (The Poet II) CPCD 8055\04 – Surprise, Surprise.wav
Pre-gap length 0:00:02.00
Peak level 88.7 %
Track quality 100.0 %
Test CRC C946AF2B
Copy CRC C946AF2B
Accurately ripped (confidence 2) [C24F1A2D]
Copy OK
Track 5
Filename E:\!Rips\FUNK @ SOUL\Bobby Womack - (The Poet II) CPCD 8055\05 – Tryin' To Get Over You.wav
Pre-gap length 0:00:02.00
Peak level 95.4 %
Track quality 100.0 %
Test CRC 0676DA4F
Copy CRC 0676DA4F
Accurately ripped (confidence 2) [2B3AEED1]
Copy OK
Track 6
Filename E:\!Rips\FUNK @ SOUL\Bobby Womack - (The Poet II) CPCD 8055\06 – Tell Me Why.wav
Pre-gap length 0:00:02.17
Peak level 99.9 %
Track quality 100.0 %
Test CRC 9182915D
Copy CRC 9182915D
Accurately ripped (confidence 2) [DA2F8422]
Copy OK
Track 7
Filename E:\!Rips\FUNK @ SOUL\Bobby Womack - (The Poet II) CPCD 8055\07 – Who's Foolin' Who.wav
Pre-gap length 0:00:01.93
Peak level 95.9 %
Track quality 100.0 %
Test CRC 085CF20C
Copy CRC 085CF20C
Accurately ripped (confidence 2) [9949A792]
Copy OK
Track 8
Filename E:\!Rips\FUNK @ SOUL\Bobby Womack - (The Poet II) CPCD 8055\08 – I Wish I Had Someone To Go Home To.wav
Pre-gap length 0:00:02.24
Peak level 80.6 %
Track quality 100.0 %
Test CRC A133D7B9
Copy CRC A133D7B9
Accurately ripped (confidence 2) [70E93EA0]
Copy OK
Track 9
Filename E:\!Rips\FUNK @ SOUL\Bobby Womack - (The Poet II) CPCD 8055\09 – American Dream.wav
Pre-gap length 0:00:01.80
Peak level 92.9 %
Track quality 100.0 %
Test CRC 5FB2E87A
Copy CRC 5FB2E87A
Accurately ripped (confidence 2) [E57F98C0]
Copy OK
All tracks accurately ripped
No errors occurred
End of status report
 
CUE
REM DATE 1984
REM DISCID 7809B309
REM COMMENT "ExactAudioCopy v0.99pb5"
PERFORMER "Bobby Womack"
TITLE "The Poet II / Featuring Patti LaBelle"
FILE "01 – Love Has Finally Come At Last.wav" WAVE
TRACK 01 AUDIO
TITLE "Love Has Finally Come At Last"
PERFORMER "Bobby Womack"
INDEX 01 00:00:00
TRACK 02 AUDIO
TITLE "It Takes A Lot Of Strength To Say Goodbye"
PERFORMER "Bobby Womack"
INDEX 00 05:32:38
FILE "02 – It Takes A Lot Of Strength To Say Goodbye.wav" WAVE
INDEX 01 00:00:00
TRACK 03 AUDIO
TITLE "Through The Eyes Of A Child"
PERFORMER "Bobby Womack"
INDEX 00 03:50:17
FILE "03 – Through The Eyes Of A Child.wav" WAVE
INDEX 01 00:00:00
TRACK 04 AUDIO
TITLE "Surprise, Surprise"
PERFORMER "Bobby Womack"
INDEX 00 05:12:13
FILE "04 – Surprise, Surprise.wav" WAVE
INDEX 01 00:00:00
TRACK 05 AUDIO
TITLE "Tryin' To Get Over You"
PERFORMER "Bobby Womack"
INDEX 00 03:37:42
FILE "05 – Tryin' To Get Over You.wav" WAVE
INDEX 01 00:00:00
TRACK 06 AUDIO
TITLE "Tell Me Why"
PERFORMER "Bobby Womack"
INDEX 00 04:13:55
FILE "06 – Tell Me Why.wav" WAVE
INDEX 01 00:00:00
TRACK 07 AUDIO
TITLE "Who's Foolin' Who"
PERFORMER "Bobby Womack"
INDEX 00 06:14:02
FILE "07 – Who's Foolin' Who.wav" WAVE
INDEX 01 00:00:00
TRACK 08 AUDIO
TITLE "I Wish I Had Someone To Go Home To"
PERFORMER "Bobby Womack"
INDEX 00 04:03:00
FILE "08 – I Wish I Had Someone To Go Home To.wav" WAVE
INDEX 01 00:00:00
TRACK 09 AUDIO
TITLE "American Dream"
PERFORMER "Bobby Womack"
INDEX 00 03:41:62
FILE "09 – American Dream.wav" WAVE
INDEX 01 00:00:00
 
1996 - Only Survivor, The MCA Years (MCA Records - MCAD-11419)

Продолжительность: 01:09:12
01. Bobby Womack - I Wish He Didn't Trust Me So Much [04:18]
02. Bobby Womack - Wanna Make Love To You [04:22]
03. Bobby Womack - That's Where It's At [04:14]
04. Bobby Womack - The Truth Song [05:24]
05. Bobby Womack - Let Me Kiss It Where It Hurts [04:16]
06. Bobby Womack - A Woman Likes To Hear That [04:27]
07. Bobby Womack - So Many Rivers [04:57]
08. Bobby Womack - A World Where No One Cries [04:47]
09. Bobby Womack - Living In A Box [04:45]
10. Bobby Womack - I Ain't Got To Love Nobody [03:21]
11. Bobby Womack - When The Weekend Comes [05:36]
12. Bobby Womack - Only Survivor [04:39]
13. Bobby Womack - Inherit The Wind [06:55]
14. Bobby Womack - No Matter How High I Get [07:03]
 
log and sheet
 
Log
Exact Audio Copy V0.99 prebeta 4 from 23. January 2008
EAC extraction logfile from 15. September 2009, 8:31
Bobby Womack / Only Survivor, The MCA Years
Used drive : PIONEER DVD+-RW DR-K17Y Adapter: 0 ID: 0
Read mode : Secure
Utilize accurate stream : Yes
Defeat audio cache : Yes
Make use of C2 pointers : No
Read offset correction : 48
Overread into Lead-In and Lead-Out : No
Fill up missing offset samples with silence : Yes
Delete leading and trailing silent blocks : No
Null samples used in CRC calculations : Yes
Used interface : Native Win32 interface for Win NT & 2000
Gap handling : Appended to previous track
Used output format : User Defined Encoder
Selected bitrate : 768 kBit/s
Quality : High
Add ID3 tag : No
Command line compressor : C:\Program Files\Exact Audio Copy\FLAC\FLAC.EXE
Additional command line options : -8 -V -T "ARTIST=%a" -T "TITLE=%t" -T "ALBUM=%g" -T "DATE=%y" -T "TRACKNUMBER=%n" -T "GENRE=%m" -T "COMMENT=EAC FLAC -8" %s
TOC of the extracted CD
Track | Start | Length | Start sector | End sector
---------------------------------------------------------
1 | 0:00.00 | 4:18.42 | 0 | 19391
2 | 4:18.42 | 4:22.70 | 19392 | 39111
3 | 8:41.37 | 4:14.30 | 39112 | 58191
4 | 12:55.67 | 5:24.60 | 58192 | 82551
5 | 18:20.52 | 4:16.28 | 82552 | 101779
6 | 22:37.05 | 4:27.70 | 101780 | 121874
7 | 27:05.00 | 4:57.60 | 121875 | 144209
8 | 32:02.60 | 4:47.15 | 144210 | 165749
9 | 36:50.00 | 4:45.60 | 165750 | 187184
10 | 41:35.60 | 3:21.20 | 187185 | 202279
11 | 44:57.05 | 5:36.00 | 202280 | 227479
12 | 50:33.05 | 4:39.62 | 227480 | 248466
13 | 55:12.67 | 6:55.68 | 248467 | 279659
14 | 62:08.60 | 7:03.50 | 279660 | 311434
Track 1
Filename C:\UPS\Bobby Womack - Only Survivor, The MCA Years (1996) [FLAC]\01 - I Wish He Didn't Trust Me So Much.wav
Pre-gap length 0:00:02.00
Peak level 96.2 %
Track quality 99.9 %
Test CRC 393B4885
Copy CRC 393B4885
Track not present in AccurateRip database
Copy OK
Track 2
Filename C:\UPS\Bobby Womack - Only Survivor, The MCA Years (1996) [FLAC]\02 - Wanna Make Love To You.wav
Pre-gap length 0:00:01.60
Peak level 100.0 %
Track quality 100.0 %
Test CRC 0362B9AF
Copy CRC 0362B9AF
Track not present in AccurateRip database
Copy OK
Track 3
Filename C:\UPS\Bobby Womack - Only Survivor, The MCA Years (1996) [FLAC]\03 - That's Where It's At.wav
Peak level 96.4 %
Track quality 100.0 %
Test CRC 53AF326A
Copy CRC 53AF326A
Track not present in AccurateRip database
Copy OK
Track 4
Filename C:\UPS\Bobby Womack - Only Survivor, The MCA Years (1996) [FLAC]\04 - The Truth Song.wav
Pre-gap length 0:00:01.53
Peak level 99.2 %
Track quality 100.0 %
Test CRC B6409377
Copy CRC B6409377
Track not present in AccurateRip database
Copy OK
Track 5
Filename C:\UPS\Bobby Womack - Only Survivor, The MCA Years (1996) [FLAC]\05 - Let Me Kiss It Where It Hurts.wav
Peak level 96.6 %
Track quality 99.9 %
Test CRC 2D9D62C5
Copy CRC 2D9D62C5
Track not present in AccurateRip database
Copy OK
Track 6
Filename C:\UPS\Bobby Womack - Only Survivor, The MCA Years (1996) [FLAC]\06 - A Woman Likes To Hear That.wav
Pre-gap length 0:00:01.04
Peak level 99.9 %
Track quality 100.0 %
Test CRC 38788BC4
Copy CRC 38788BC4
Track not present in AccurateRip database
Copy OK
Track 7
Filename C:\UPS\Bobby Womack - Only Survivor, The MCA Years (1996) [FLAC]\07 - So Many Rivers.wav
Peak level 93.1 %
Track quality 100.0 %
Test CRC FC56A6E3
Copy CRC FC56A6E3
Track not present in AccurateRip database
Copy OK
Track 8
Filename C:\UPS\Bobby Womack - Only Survivor, The MCA Years (1996) [FLAC]\08 - A World Where No One Cries.wav
Peak level 100.0 %
Track quality 99.9 %
Test CRC D85A3F7F
Copy CRC D85A3F7F
Track not present in AccurateRip database
Copy OK
Track 9
Filename C:\UPS\Bobby Womack - Only Survivor, The MCA Years (1996) [FLAC]\09 - Living In A Box.wav
Peak level 96.3 %
Track quality 100.0 %
Test CRC 5A40192B
Copy CRC 5A40192B
Track not present in AccurateRip database
Copy OK
Track 10
Filename C:\UPS\Bobby Womack - Only Survivor, The MCA Years (1996) [FLAC]\10 - I Ain't Got To Love Nobody.wav
Pre-gap length 0:00:01.00
Peak level 100.0 %
Track quality 100.0 %
Test CRC 737FBC9A
Copy CRC 737FBC9A
Track not present in AccurateRip database
Copy OK
Track 11
Filename C:\UPS\Bobby Womack - Only Survivor, The MCA Years (1996) [FLAC]\11 - When The Weekend Comes.wav
Peak level 99.4 %
Track quality 100.0 %
Test CRC F29A569D
Copy CRC F29A569D
Track not present in AccurateRip database
Copy OK
Track 12
Filename C:\UPS\Bobby Womack - Only Survivor, The MCA Years (1996) [FLAC]\12 - Only Survivor.wav
Peak level 96.2 %
Track quality 100.0 %
Test CRC 586BA6D7
Copy CRC 586BA6D7
Track not present in AccurateRip database
Copy OK
Track 13
Filename C:\UPS\Bobby Womack - Only Survivor, The MCA Years (1996) [FLAC]\13 - Inherit The Wind.wav
Peak level 99.5 %
Track quality 100.0 %
Test CRC 363A1DB9
Copy CRC 363A1DB9
Track not present in AccurateRip database
Copy OK
Track 14
Filename C:\UPS\Bobby Womack - Only Survivor, The MCA Years (1996) [FLAC]\14 - No Matter How High I Get.wav
Pre-gap length 0:00:02.53
Peak level 100.0 %
Track quality 100.0 %
Test CRC CD2A19A5
Copy CRC CD2A19A5
Track not present in AccurateRip database
Copy OK
None of the tracks are present in the AccurateRip database
No errors occurred
End of status report
 
CUE
REM GENRE Soul
REM DATE 1996
REM DISCID B910380E
REM COMMENT "ExactAudioCopy v0.99pb4"
PERFORMER "Bobby Womack"
TITLE "Only Survivor, The MCA Years"
FILE "01 - I Wish He Didn't Trust Me So Much.wav" WAVE
TRACK 01 AUDIO
TITLE "I Wish He Didn't Trust Me So Much"
PERFORMER "Bobby Womack"
INDEX 01 00:00:00
TRACK 02 AUDIO
TITLE "Wanna Make Love To You"
PERFORMER "Bobby Womack"
INDEX 00 04:16:72
FILE "02 - Wanna Make Love To You.wav" WAVE
INDEX 01 00:00:00
FILE "03 - That's Where It's At.wav" WAVE
TRACK 03 AUDIO
TITLE "That's Where It's At"
PERFORMER "Bobby Womack"
INDEX 01 00:00:00
TRACK 04 AUDIO
TITLE "The Truth Song"
PERFORMER "Bobby Womack"
INDEX 00 04:12:65
FILE "04 - The Truth Song.wav" WAVE
INDEX 01 00:00:00
FILE "05 - Let Me Kiss It Where It Hurts.wav" WAVE
TRACK 05 AUDIO
TITLE "Let Me Kiss It Where It Hurts"
PERFORMER "Bobby Womack"
INDEX 01 00:00:00
TRACK 06 AUDIO
TITLE "A Woman Likes To Hear That"
PERFORMER "Bobby Womack"
INDEX 00 04:15:25
FILE "06 - A Woman Likes To Hear That.wav" WAVE
INDEX 01 00:00:00
FILE "07 - So Many Rivers.wav" WAVE
TRACK 07 AUDIO
TITLE "So Many Rivers"
PERFORMER "Bobby Womack"
INDEX 01 00:00:00
FILE "08 - A World Where No One Cries.wav" WAVE
TRACK 08 AUDIO
TITLE "A World Where No One Cries"
PERFORMER "Bobby Womack"
INDEX 01 00:00:00
FILE "09 - Living In A Box.wav" WAVE
TRACK 09 AUDIO
TITLE "Living In A Box"
PERFORMER "Bobby Womack"
INDEX 01 00:00:00
TRACK 10 AUDIO
TITLE "I Ain't Got To Love Nobody"
PERFORMER "Bobby Womack"
INDEX 00 04:44:60
FILE "10 - I Ain't Got To Love Nobody.wav" WAVE
INDEX 01 00:00:00
FILE "11 - When The Weekend Comes.wav" WAVE
TRACK 11 AUDIO
TITLE "When The Weekend Comes"
PERFORMER "Bobby Womack"
INDEX 01 00:00:00
FILE "12 - Only Survivor.wav" WAVE
TRACK 12 AUDIO
TITLE "Only Survivor"
PERFORMER "Bobby Womack"
INDEX 01 00:00:00
FILE "13 - Inherit The Wind.wav" WAVE
TRACK 13 AUDIO
TITLE "Inherit The Wind"
PERFORMER "Bobby Womack"
INDEX 01 00:00:00
TRACK 14 AUDIO
TITLE "No Matter How High I Get"
PERFORMER "Bobby Womack"
INDEX 00 06:53:28
FILE "14 - No Matter How High I Get.wav" WAVE
INDEX 01 00:00:00
 
1998 - Soul Sensation Live (Sequel Records - NEMCD996)

Продолжительность: 01:13:29
01. Bobby Womack - Womack's Groove [01:26]
02. Bobby Womack - Baby I'm Back [03:09]
03. Bobby Womack - Nobody Knows You When You're Down And Out [02:08]
04. Bobby Womack - Daylight [01:04]
05. Bobby Womack - Woman's Gotta Have It [04:47]
06. Bobby Womack - That's The Way I Feel About Cha [03:46]
07. Bobby Womack - Inherit The Wind [08:15]
08. Bobby Womack - If You Think You're Lonely Now [01:59]
09. Bobby Womack - A World Where No One Cries [04:43]
10. Bobby Womack - Ain't Nothing Like The Loving We Got [03:27]
11. Bobby Womack - Trying To Get Over You [15:04]
12. Bobby Womack - I Wanna Make Love To You [05:51]
13. Bobby Womack - It's All Over Now (Blues Version) [02:04]
14. Bobby Womack - When The Weekend Comes [04:51]
15. Bobby Womack - No Matter How High I Get [05:15]
16. Bobby Womack - How Can It Be? [05:33]
 
log and sheet
 
Log
Exact Audio Copy V0.99 prebeta 4 from 23. January 2008
EAC extraction logfile from 27. September 2009, 18:10
Bobby Womack / Soul Sensation Live
Used drive : PIONEER DVD+-RW DR-K17Y Adapter: 0 ID: 0
Read mode : Secure
Utilize accurate stream : Yes
Defeat audio cache : Yes
Make use of C2 pointers : No
Read offset correction : 48
Overread into Lead-In and Lead-Out : No
Fill up missing offset samples with silence : Yes
Delete leading and trailing silent blocks : No
Null samples used in CRC calculations : Yes
Used interface : Native Win32 interface for Win NT & 2000
Gap handling : Appended to previous track
Used output format : User Defined Encoder
Selected bitrate : 768 kBit/s
Quality : High
Add ID3 tag : No
Command line compressor : C:\Program Files\Exact Audio Copy\FLAC\FLAC.EXE
Additional command line options : -8 -V -T "ARTIST=%a" -T "TITLE=%t" -T "ALBUM=%g" -T "DATE=%y" -T "TRACKNUMBER=%n" -T "GENRE=%m" -T "COMMENT=EAC FLAC -8" %s
TOC of the extracted CD
Track | Start | Length | Start sector | End sector
---------------------------------------------------------
1 | 0:00.32 | 1:26.00 | 32 | 6481
2 | 1:26.32 | 3:09.13 | 6482 | 20669
3 | 4:35.45 | 2:08.62 | 20670 | 30331
4 | 6:44.32 | 1:04.70 | 30332 | 35201
5 | 7:49.27 | 4:47.35 | 35202 | 56761
6 | 12:36.62 | 3:46.35 | 56762 | 73746
7 | 16:23.22 | 8:15.48 | 73747 | 110919
8 | 24:38.70 | 1:59.25 | 110920 | 119869
9 | 26:38.20 | 4:43.30 | 119870 | 141124
10 | 31:21.50 | 3:27.27 | 141125 | 156676
11 | 34:49.02 | 15:04.05 | 156677 | 224481
12 | 49:53.07 | 5:51.00 | 224482 | 250806
13 | 55:44.07 | 2:04.45 | 250807 | 260151
14 | 57:48.52 | 4:51.60 | 260152 | 282036
15 | 62:40.37 | 5:15.33 | 282037 | 305694
16 | 67:55.70 | 5:33.55 | 305695 | 330724
Track 1
Filename C:\UPS\Bobby Womack - Soul Sensation Live (1998) [FLAC]\01 - Womack's Groove.wav
Pre-gap length 0:00:02.42
Peak level 89.1 %
Track quality 99.8 %
Test CRC E6D97ACE
Copy CRC E6D97ACE
Track not present in AccurateRip database
Copy OK
Track 2
Filename C:\UPS\Bobby Womack - Soul Sensation Live (1998) [FLAC]\02 - Baby I'm Back.wav
Peak level 89.5 %
Track quality 100.0 %
Test CRC E98D9CC2
Copy CRC E98D9CC2
Track not present in AccurateRip database
Copy OK
Track 3
Filename C:\UPS\Bobby Womack - Soul Sensation Live (1998) [FLAC]\03 - Nobody Knows You When You're Down And Out.wav
Peak level 89.9 %
Track quality 99.9 %
Test CRC BF8C247E
Copy CRC BF8C247E
Track not present in AccurateRip database
Copy OK
Track 4
Filename C:\UPS\Bobby Womack - Soul Sensation Live (1998) [FLAC]\04 - Daylight.wav
Peak level 90.2 %
Track quality 100.0 %
Test CRC E4C268F8
Copy CRC E4C268F8
Track not present in AccurateRip database
Copy OK
Track 5
Filename C:\UPS\Bobby Womack - Soul Sensation Live (1998) [FLAC]\05 - Woman's Gotta Have It.wav
Peak level 90.2 %
Track quality 100.0 %
Test CRC 56B799FC
Copy CRC 56B799FC
Track not present in AccurateRip database
Copy OK
Track 6
Filename C:\UPS\Bobby Womack - Soul Sensation Live (1998) [FLAC]\06 - That's The Way I Feel About Cha.wav
Peak level 90.2 %
Track quality 99.9 %
Test CRC E6920415
Copy CRC E6920415
Track not present in AccurateRip database
Copy OK
Track 7
Filename C:\UPS\Bobby Womack - Soul Sensation Live (1998) [FLAC]\07 - Inherit The Wind.wav
Peak level 86.0 %
Track quality 100.0 %
Test CRC 649779BD
Copy CRC 649779BD
Track not present in AccurateRip database
Copy OK
Track 8
Filename C:\UPS\Bobby Womack - Soul Sensation Live (1998) [FLAC]\08 - If You Think You're Lonely Now.wav
Peak level 89.2 %
Track quality 100.0 %
Test CRC C3185815
Copy CRC C3185815
Track not present in AccurateRip database
Copy OK
Track 9
Filename C:\UPS\Bobby Womack - Soul Sensation Live (1998) [FLAC]\09 - A World Where No One Cries.wav
Peak level 90.2 %
Track quality 100.0 %
Test CRC 985ADA13
Copy CRC 985ADA13
Track not present in AccurateRip database
Copy OK
Track 10
Filename C:\UPS\Bobby Womack - Soul Sensation Live (1998) [FLAC]\10 - Ain't Nothing Like The Loving We Got.wav
Peak level 90.1 %
Track quality 100.0 %
Test CRC 76062436
Copy CRC 76062436
Track not present in AccurateRip database
Copy OK
Track 11
Filename C:\UPS\Bobby Womack - Soul Sensation Live (1998) [FLAC]\11 - Trying To Get Over You.wav
Peak level 86.4 %
Track quality 100.0 %
Test CRC A27940A9
Copy CRC A27940A9
Track not present in AccurateRip database
Copy OK
Track 12
Filename C:\UPS\Bobby Womack - Soul Sensation Live (1998) [FLAC]\12 - I Wanna Make Love To You.wav
Peak level 84.0 %
Track quality 99.9 %
Test CRC 1C585683
Copy CRC 1C585683
Track not present in AccurateRip database
Copy OK
Track 13
Filename C:\UPS\Bobby Womack - Soul Sensation Live (1998) [FLAC]\13 - It's All Over Now (Blues Version).wav
Peak level 89.8 %
Track quality 100.0 %
Test CRC 3F18F720
Copy CRC 3F18F720
Track not present in AccurateRip database
Copy OK
Track 14
Filename C:\UPS\Bobby Womack - Soul Sensation Live (1998) [FLAC]\14 - When The Weekend Comes.wav
Peak level 92.7 %
Track quality 100.0 %
Test CRC 6AD3C152
Copy CRC 6AD3C152
Track not present in AccurateRip database
Copy OK
Track 15
Filename C:\UPS\Bobby Womack - Soul Sensation Live (1998) [FLAC]\15 - No Matter How High I Get.wav
Peak level 89.7 %
Track quality 99.9 %
Test CRC 0CFA0B08
Copy CRC 0CFA0B08
Track not present in AccurateRip database
Copy OK
Track 16
Filename C:\UPS\Bobby Womack - Soul Sensation Live (1998) [FLAC]\16 - How Can It Be .wav
Pre-gap length 0:01:17.26
Peak level 84.2 %
Track quality 99.9 %
Test CRC D49D9D87
Copy CRC D49D9D87
Track not present in AccurateRip database
Copy OK
None of the tracks are present in the AccurateRip database
No errors occurred
End of status report
 
CUE
REM GENRE Soul
REM DATE 1998
REM DISCID F1113910
REM COMMENT "ExactAudioCopy v0.99pb4"
PERFORMER "Bobby Womack"
TITLE "Soul Sensation Live"
FILE "01 - Womack's Groove.wav" WAVE
TRACK 01 AUDIO
TITLE "Womack's Groove"
PERFORMER "Bobby Womack"
PREGAP 00:00:32
INDEX 01 00:00:00
FILE "02 - Baby I'm Back.wav" WAVE
TRACK 02 AUDIO
TITLE "Baby I'm Back"
PERFORMER "Bobby Womack"
INDEX 01 00:00:00
FILE "03 - Nobody Knows You When You're Down And Out.wav" WAVE
TRACK 03 AUDIO
TITLE "Nobody Knows You When You're Down And Out"
PERFORMER "Bobby Womack"
INDEX 01 00:00:00
FILE "04 - Daylight.wav" WAVE
TRACK 04 AUDIO
TITLE "Daylight"
PERFORMER "Bobby Womack"
INDEX 01 00:00:00
FILE "05 - Woman's Gotta Have It.wav" WAVE
TRACK 05 AUDIO
TITLE "Woman's Gotta Have It"
PERFORMER "Bobby Womack"
INDEX 01 00:00:00
FILE "06 - That's The Way I Feel About Cha.wav" WAVE
TRACK 06 AUDIO
TITLE "That's The Way I Feel About Cha"
PERFORMER "Bobby Womack"
INDEX 01 00:00:00
FILE "07 - Inherit The Wind.wav" WAVE
TRACK 07 AUDIO
TITLE "Inherit The Wind"
PERFORMER "Bobby Womack"
INDEX 01 00:00:00
FILE "08 - If You Think You're Lonely Now.wav" WAVE
TRACK 08 AUDIO
TITLE "If You Think You're Lonely Now"
PERFORMER "Bobby Womack"
INDEX 01 00:00:00
FILE "09 - A World Where No One Cries.wav" WAVE
TRACK 09 AUDIO
TITLE "A World Where No One Cries"
PERFORMER "Bobby Womack"
INDEX 01 00:00:00
FILE "10 - Ain't Nothing Like The Loving We Got.wav" WAVE
TRACK 10 AUDIO
TITLE "Ain't Nothing Like The Loving We Got"
PERFORMER "Bobby Womack"
INDEX 01 00:00:00
FILE "11 - Trying To Get Over You.wav" WAVE
TRACK 11 AUDIO
TITLE "Trying To Get Over You"
PERFORMER "Bobby Womack"
INDEX 01 00:00:00
FILE "12 - I Wanna Make Love To You.wav" WAVE
TRACK 12 AUDIO
TITLE "I Wanna Make Love To You"
PERFORMER "Bobby Womack"
INDEX 01 00:00:00
FILE "13 - It's All Over Now (Blues Version).wav" WAVE
TRACK 13 AUDIO
TITLE "It's All Over Now (Blues Version)"
PERFORMER "Bobby Womack"
INDEX 01 00:00:00
FILE "14 - When The Weekend Comes.wav" WAVE
TRACK 14 AUDIO
TITLE "When The Weekend Comes"
PERFORMER "Bobby Womack"
INDEX 01 00:00:00
FILE "15 - No Matter How High I Get.wav" WAVE
TRACK 15 AUDIO
TITLE "No Matter How High I Get"
PERFORMER "Bobby Womack"
INDEX 01 00:00:00
TRACK 16 AUDIO
TITLE "How Can It Be?"
PERFORMER "Bobby Womack"
INDEX 00 03:58:13
FILE "16 - How Can It Be .wav" WAVE
INDEX 01 00:00:00
 
1999 - Greatest Hits (1972-1989) (Capitol} - 743 523177 2 1)

Продолжительность: 01:04:38
01. Bobby Womack - Lookin For A Love [02:40]
02. Bobby Womack - Check It Out [03:50]
03. Bobby Womack - You're Welcome, Stop On By [03:44]
04. Bobby Womack - Sweet Caroline (Good Times Never Seemed So Good) [03:10]
05. Bobby Womack - Ain't Nothin' Like The Lovin' We Got [04:46]
06. Bobby Womack - That's The Way I Feel About 'Cha [03:38]
07. Bobby Womack - The Preacher [06:25]
08. Bobby Womack - I'm Through Trying To Prove My Love To You [03:51]
09. Bobby Womack - It's All Over Now [02:55]
10. Bobby Womack - How I Miss You Baby [03:18]
11. Bobby Womack - Daylight [03:33]
12. Bobby Womack - Nobody Wants You When You're Down And Out [03:00]
13. Bobby Womack - Woman's Gotta Have It [03:33]
14. Bobby Womack - If You Can't Give Her Love, Give Her Up [02:48]
15. Bobby Womack - Harry Hippie [03:52]
16. Bobby Womack - Save The Children [06:32]
17. Bobby Womack - Somebody Special [02:54]
 
log and sheet
 
Log
Exact Audio Copy V1.0 beta 1 from 15. November 2010
EAC extraction logfile from 21. January 2011, 23:48
Bobby Womack / Greatest Hits
Used drive : LITE-ON CD-RW SOHR-5238S Adapter: 6 ID: 3
Read mode : Secure
Utilize accurate stream : Yes
Defeat audio cache : Yes
Make use of C2 pointers : No
Read offset correction : 6
Overread into Lead-In and Lead-Out : No
Fill up missing offset samples with silence : Yes
Delete leading and trailing silent blocks : No
Null samples used in CRC calculations : Yes
Used interface : Installed external ASPI interface
Gap handling : Appended to previous track
Used output format : Internal WAV Routines
Sample format : 44.100 Hz; 16 Bit; Stereo
TOC of the extracted CD
Track | Start | Length | Start sector | End sector
---------------------------------------------------------
1 | 0:00.00 | 2:40.35 | 0 | 12034
2 | 2:40.35 | 3:50.22 | 12035 | 29306
3 | 6:30.57 | 3:44.13 | 29307 | 46119
4 | 10:14.70 | 3:10.25 | 46120 | 60394
5 | 13:25.20 | 4:46.70 | 60395 | 81914
6 | 18:12.15 | 3:38.17 | 81915 | 98281
7 | 21:50.32 | 6:25.70 | 98282 | 127226
8 | 28:16.27 | 3:51.10 | 127227 | 144561
9 | 32:07.37 | 2:55.63 | 144562 | 157749
10 | 35:03.25 | 3:18.72 | 157750 | 172671
11 | 38:22.22 | 3:33.00 | 172672 | 188646
12 | 41:55.22 | 3:00.60 | 188647 | 202206
13 | 44:56.07 | 3:33.73 | 202207 | 218254
14 | 48:30.05 | 2:48.35 | 218255 | 230889
15 | 51:18.40 | 3:52.42 | 230890 | 248331
16 | 55:11.07 | 6:32.48 | 248332 | 277779
17 | 61:43.55 | 2:54.70 | 277780 | 290899
Track 1
Filename F:\eac\Bobby Womack\01 - Lookin For A Love.wav
Pre-gap length 0:00:02.00
Peak level 100.0 %
Extraction speed 5.2 X
Track quality 100.0 %
Test CRC 688CAF47
Copy CRC 688CAF47
Accurately ripped (confidence 1) [2C86B33F]
Copy OK
Track 2
Filename F:\eac\Bobby Womack\02 - Check It Out.wav
Pre-gap length 0:00:02.05
Peak level 100.0 %
Extraction speed 6.0 X
Track quality 100.0 %
Test CRC FDB79A4B
Copy CRC FDB79A4B
Accurately ripped (confidence 1) [61BA3F8B]
Copy OK
Track 3
Filename F:\eac\Bobby Womack\03 - You're Welcome, Stop On By.wav
Pre-gap length 0:00:02.25
Peak level 98.0 %
Extraction speed 6.5 X
Track quality 100.0 %
Test CRC CD894E58
Copy CRC CD894E58
Accurately ripped (confidence 1) [AD1F7901]
Copy OK
Track 4
Filename F:\eac\Bobby Womack\04 - Sweet Caroline (Good Times Never Seemed So Good).wav
Pre-gap length 0:00:02.45
Peak level 98.6 %
Extraction speed 6.8 X
Track quality 100.0 %
Test CRC 7A00AA65
Copy CRC 7A00AA65
Accurately ripped (confidence 1) [888A7A94]
Copy OK
Track 5
Filename F:\eac\Bobby Womack\05 - Ain't Nothin' Like The Lovin' We Got.wav
Pre-gap length 0:00:01.23
Peak level 100.0 %
Extraction speed 7.7 X
Track quality 100.0 %
Test CRC 298C4F84
Copy CRC 298C4F84
Accurately ripped (confidence 1) [5E3AF9E3]
Copy OK
Track 6
Filename F:\eac\Bobby Womack\06 - That's The Way I Feel About 'Cha.wav
Pre-gap length 0:00:02.73
Peak level 97.5 %
Extraction speed 7.9 X
Track quality 100.0 %
Test CRC 78515569
Copy CRC 78515569
Accurately ripped (confidence 1) [5640F3A3]
Copy OK
Track 7
Filename F:\eac\Bobby Womack\07 - The Preacher.wav
Pre-gap length 0:00:02.47
Peak level 81.4 %
Extraction speed 9.0 X
Track quality 100.0 %
Test CRC C9633E6E
Copy CRC C9633E6E
Accurately ripped (confidence 1) [4003CF78]
Copy OK
Track 8
Filename F:\eac\Bobby Womack\08 - I'm Through Trying To Prove My Love To You.wav
Pre-gap length 0:00:01.52
Peak level 97.2 %
Extraction speed 8.9 X
Track quality 100.0 %
Test CRC 70930E50
Copy CRC 70930E50
Accurately ripped (confidence 1) [9CEEFC95]
Copy OK
Track 9
Filename F:\eac\Bobby Womack\09 - It's All Over Now.wav
Pre-gap length 0:00:02.45
Peak level 79.8 %
Extraction speed 8.9 X
Track quality 100.0 %
Test CRC E9E02CA7
Copy CRC E9E02CA7
Accurately ripped (confidence 1) [D0EC1D10]
Copy OK
Track 10
Filename F:\eac\Bobby Womack\10 - How I Miss You Baby.wav
Pre-gap length 0:00:02.20
Peak level 100.0 %
Extraction speed 9.3 X
Track quality 100.0 %
Test CRC 5B213D7D
Copy CRC 5B213D7D
Accurately ripped (confidence 1) [52AD675E]
Copy OK
Track 11
Filename F:\eac\Bobby Womack\11 - Daylight.wav
Pre-gap length 0:00:02.65
Peak level 100.0 %
Extraction speed 8.3 X
Track quality 99.9 %
Test CRC 68EB8D4D
Copy CRC 68EB8D4D
Accurately ripped (confidence 1) [4FF52707]
Copy OK
Track 12
Filename F:\eac\Bobby Womack\12 - Nobody Wants You When You're Down And Out.wav
Pre-gap length 0:00:02.65
Peak level 100.0 %
Extraction speed 8.8 X
Track quality 100.0 %
Test CRC 7763DF1F
Copy CRC 7763DF1F
Accurately ripped (confidence 1) [B4D7EED1]
Copy OK
Track 13
Filename F:\eac\Bobby Womack\13 - Woman's Gotta Have It.wav
Pre-gap length 0:00:02.27
Peak level 100.0 %
Extraction speed 6.7 X
Track quality 100.0 %
Test CRC C9793EE3
Copy CRC C9793EE3
Accurately ripped (confidence 1) [EAAD1661]
Copy OK
Track 14
Filename F:\eac\Bobby Womack\14 - If You Can't Give Her Love, Give Her Up.wav
Pre-gap length 0:00:01.68
Peak level 100.0 %
Extraction speed 6.7 X
Track quality 100.0 %
Test CRC 27F336BA
Copy CRC 27F336BA
Accurately ripped (confidence 1) [A978B200]
Copy OK
Track 15
Filename F:\eac\Bobby Womack\15 - Harry Hippie.wav
Pre-gap length 0:00:02.10
Peak level 97.6 %
Extraction speed 7.3 X
Track quality 100.0 %
Test CRC 761B8314
Copy CRC 761B8314
Accurately ripped (confidence 1) [C3CC37E1]
Copy OK
Track 16
Filename F:\eac\Bobby Womack\16 - Save The Children.wav
Pre-gap length 0:00:01.57
Peak level 80.9 %
Extraction speed 7.9 X
Track quality 100.0 %
Test CRC CE8AFED3
Copy CRC CE8AFED3
Accurately ripped (confidence 1) [A0401EF1]
Copy OK
Track 17
Filename F:\eac\Bobby Womack\17 - Somebody Special.wav
Pre-gap length 0:00:02.30
Peak level 97.1 %
Extraction speed 7.2 X
Track quality 100.0 %
Test CRC BC1E8F69
Copy CRC BC1E8F69
Accurately ripped (confidence 1) [77E3B56F]
Copy OK
All tracks accurately ripped
No errors occurred
End of status report
==== Log checksum 2D6A8A74209876B8E08E2AF3296CD607238BF5E5D8E699757BE752B5382700DB ====
 
CUE
REM GENRE Soul
REM DATE 1999
REM DISCID E20F2611
REM COMMENT "ExactAudioCopy v1.0b1"
PERFORMER "Bobby Womack"
TITLE "Greatest Hits"
FILE "01 - Lookin For A Love.flac" WAVE
TRACK 01 AUDIO
TITLE "Lookin For A Love"
PERFORMER "Bobby Womack"
INDEX 01 00:00:00
TRACK 02 AUDIO
TITLE "Check It Out"
PERFORMER "Bobby Womack"
INDEX 00 02:38:30
FILE "02 - Check It Out.flac" WAVE
INDEX 01 00:00:00
TRACK 03 AUDIO
TITLE "You're Welcome, Stop On By"
PERFORMER "Bobby Womack"
INDEX 00 03:47:72
FILE "03 - You're Welcome, Stop On By.flac" WAVE
INDEX 01 00:00:00
TRACK 04 AUDIO
TITLE "Sweet Caroline (Good Times Never Seemed So Good)"
PERFORMER "Bobby Womack"
INDEX 00 03:41:43
FILE "04 - Sweet Caroline (Good Times Never Seemed So Good).flac" WAVE
INDEX 01 00:00:00
TRACK 05 AUDIO
TITLE "Ain't Nothin' Like The Lovin' We Got"
PERFORMER "Bobby Womack"
INDEX 00 03:09:02
FILE "05 - Ain't Nothin' Like The Lovin' We Got.flac" WAVE
INDEX 01 00:00:00
TRACK 06 AUDIO
TITLE "That's The Way I Feel About 'Cha"
PERFORMER "Bobby Womack"
INDEX 00 04:43:72
FILE "06 - That's The Way I Feel About 'Cha.flac" WAVE
INDEX 01 00:00:00
TRACK 07 AUDIO
TITLE "The Preacher"
PERFORMER "Bobby Womack"
INDEX 00 03:35:45
FILE "07 - The Preacher.flac" WAVE
INDEX 01 00:00:00
TRACK 08 AUDIO
TITLE "I'm Through Trying To Prove My Love To You"
PERFORMER "Bobby Womack"
INDEX 00 06:24:18
FILE "08 - I'm Through Trying To Prove My Love To You.flac" WAVE
INDEX 01 00:00:00
TRACK 09 AUDIO
TITLE "It's All Over Now"
PERFORMER "Bobby Womack"
INDEX 00 03:48:40
FILE "09 - It's All Over Now.flac" WAVE
INDEX 01 00:00:00
TRACK 10 AUDIO
TITLE "How I Miss You Baby"
PERFORMER "Bobby Womack"
INDEX 00 02:53:43
FILE "10 - How I Miss You Baby.flac" WAVE
INDEX 01 00:00:00
TRACK 11 AUDIO
TITLE "Daylight"
PERFORMER "Bobby Womack"
INDEX 00 03:16:07
FILE "11 - Daylight.flac" WAVE
INDEX 01 00:00:00
TRACK 12 AUDIO
TITLE "Nobody Wants You When You're Down And Out"
PERFORMER "Bobby Womack"
INDEX 00 03:30:10
FILE "12 - Nobody Wants You When You're Down And Out.flac" WAVE
INDEX 01 00:00:00
TRACK 13 AUDIO
TITLE "Woman's Gotta Have It"
PERFORMER "Bobby Womack"
INDEX 00 02:58:33
FILE "13 - Woman's Gotta Have It.flac" WAVE
INDEX 01 00:00:00
TRACK 14 AUDIO
TITLE "If You Can't Give Her Love, Give Her Up"
PERFORMER "Bobby Womack"
INDEX 00 03:32:05
FILE "14 - If You Can't Give Her Love, Give Her Up.flac" WAVE
INDEX 01 00:00:00
TRACK 15 AUDIO
TITLE "Harry Hippie"
PERFORMER "Bobby Womack"
INDEX 00 02:46:25
FILE "15 - Harry Hippie.flac" WAVE
INDEX 01 00:00:00
TRACK 16 AUDIO
TITLE "Save The Children"
PERFORMER "Bobby Womack"
INDEX 00 03:50:60
FILE "16 - Save The Children.flac" WAVE
INDEX 01 00:00:00
TRACK 17 AUDIO
TITLE "Somebody Special"
PERFORMER "Bobby Womack"
INDEX 00 06:30:18
FILE "17 - Somebody Special.flac" WAVE
INDEX 01 00:00:00
 
2000 - The Best Of the Poet' Trilogy (Music Collection International - MCCD 432)

Продолжительность: 01:14:48
01. Bobby Womack - So Many Sides Of You [03:46]
02. Bobby Womack - Lay Your Lovin' On Me [04:03]
03. Bobby Womack - Secrets [03:51]
04. Bobby Womack - Just My Imagination [05:08]
05. Bobby Womack - If You Think You're Lonely Now [05:28]
06. Bobby Womack - Love Has Finally Come At Last [05:32]
07. Bobby Womack - Through The Eyes Of A Child [05:12]
08. Bobby Womack - Surprise Surprise [03:34]
09. Bobby Womack - Tryin' To Get Over You [04:11]
10. Bobby Womack - Tell Me Why [06:07]
11. Bobby Womack - American Dream [04:41]
12. Bobby Womack - I'm So Proud [05:02]
13. Bobby Womack - Someday We'll All Be Free [06:15]
14. Bobby Womack - Gifted One [04:28]
15. Bobby Womack - Searching For My Love [03:44]
16. Bobby Womack - I Wish I Had Someone To Go Home To [03:39]
 
log and sheet
 
Log
Exact Audio Copy V1.0 beta 3 from 29. August 2011
EAC extraction logfile from 27. February 2014, 10:15
Bobby Womack / The Best Of the Poet Trilogy
Used drive : PLEXTOR CD-R PREMIUM2 Adapter: 4 ID: 0
Read mode : Secure
Utilize accurate stream : Yes
Defeat audio cache : Yes
Make use of C2 pointers : No
Read offset correction : 30
Overread into Lead-In and Lead-Out : Yes
Fill up missing offset samples with silence : Yes
Delete leading and trailing silent blocks : No
Null samples used in CRC calculations : Yes
Used interface : Native Win32 interface for Win NT & 2000
Gap handling : Appended to previous track
Used output format : User Defined Encoder
Selected bitrate : 1024 kBit/s
Quality : High
Add ID3 tag : No
Command line compressor : C:\Program Files (x86)\Exact Audio Copy\Flac\flac.exe
Additional command line options : -8 -V -T "ARTIST=%artist%" -T "TITLE=%title%" -T "ALBUM=%albumtitle%" -T "DATE=%year%" -T "TRACKNUMBER=%tracknr%" -T "TOTALTRACKS=%numtracks%" -T "GENRE=%genre%" -T "ALBUMARTIST=%albumartist%" -T "ALBUM ARTIST=%albumartist%" -T "COMMENT=EAC Secure Mode, Test & Copy, AccurateRip, FLAC -8" %source%
TOC of the extracted CD
Track | Start | Length | Start sector | End sector
---------------------------------------------------------
1 | 0:00.00 | 3:46.12 | 0 | 16961
2 | 3:46.12 | 4:03.33 | 16962 | 35219
3 | 7:49.45 | 3:51.55 | 35220 | 52599
4 | 11:41.25 | 5:08.07 | 52600 | 75706
5 | 16:49.32 | 5:28.38 | 75707 | 100344
6 | 22:17.70 | 5:32.70 | 100345 | 125314
7 | 27:50.65 | 5:12.65 | 125315 | 148779
8 | 33:03.55 | 3:34.27 | 148780 | 164856
9 | 36:38.07 | 4:11.23 | 164857 | 183704
10 | 40:49.30 | 6:07.57 | 183705 | 211286
11 | 46:57.12 | 4:41.53 | 211287 | 232414
12 | 51:38.65 | 5:02.07 | 232415 | 255071
13 | 56:40.72 | 6:15.18 | 255072 | 283214
14 | 62:56.15 | 4:28.20 | 283215 | 303334
15 | 67:24.35 | 3:44.25 | 303335 | 320159
16 | 71:08.60 | 3:39.35 | 320160 | 336619
Track 1
Filename G:\FLAC\01 - So Many Sides Of You.wav
Pre-gap length 0:00:02.00
Peak level 97.8 %
Extraction speed 1.9 X
Track quality 100.0 %
Test CRC FF6D22EE
Copy CRC FF6D22EE
Accurately ripped (confidence 4) [54841306] (AR v2)
Copy OK
Track 2
Filename G:\FLAC\02 - Lay Your Lovin' On Me.wav
Pre-gap length 0:00:01.47
Peak level 97.7 %
Extraction speed 1.9 X
Track quality 100.0 %
Test CRC EB52B732
Copy CRC EB52B732
Accurately ripped (confidence 4) [BCC5ED08] (AR v2)
Copy OK
Track 3
Filename G:\FLAC\03 - Secrets.wav
Pre-gap length 0:00:01.48
Peak level 97.7 %
Extraction speed 1.8 X
Track quality 99.9 %
Test CRC 2F5B00A4
Copy CRC 2F5B00A4
Accurately ripped (confidence 4) [79B59519] (AR v2)
Copy OK
Track 4
Filename G:\FLAC\04 - Just My Imagination.wav
Pre-gap length 0:00:01.48
Peak level 97.7 %
Extraction speed 1.9 X
Track quality 99.9 %
Test CRC 2BE566D1
Copy CRC 2BE566D1
Accurately ripped (confidence 4) [F1743686] (AR v2)
Copy OK
Track 5
Filename G:\FLAC\05 - If You Think You're Lonely Now.wav
Pre-gap length 0:00:01.47
Peak level 97.7 %
Extraction speed 1.9 X
Track quality 100.0 %
Test CRC 15A69A52
Copy CRC 15A69A52
Accurately ripped (confidence 4) [1A10BA4D] (AR v2)
Copy OK
Track 6
Filename G:\FLAC\06 - Love Has Finally Come At Last.wav
Pre-gap length 0:00:01.48
Peak level 97.7 %
Extraction speed 1.9 X
Track quality 100.0 %
Test CRC 6D76237F
Copy CRC 6D76237F
Accurately ripped (confidence 4) [AB053448] (AR v2)
Copy OK
Track 7
Filename G:\FLAC\07 - Through The Eyes Of A Child.wav
Pre-gap length 0:00:01.48
Peak level 97.7 %
Extraction speed 1.9 X
Track quality 100.0 %
Test CRC EF07AAC6
Copy CRC EF07AAC6
Accurately ripped (confidence 4) [088AB9EE] (AR v2)
Copy OK
Track 8
Filename G:\FLAC\08 - Surprise Surprise.wav
Pre-gap length 0:00:01.48
Peak level 97.7 %
Extraction speed 1.9 X
Track quality 100.0 %
Test CRC 55974135
Copy CRC 55974135
Accurately ripped (confidence 4) [4A25708A] (AR v2)
Copy OK
Track 9
Filename G:\FLAC\09 - Tryin' To Get Over You.wav
Pre-gap length 0:00:01.47
Peak level 97.7 %
Extraction speed 1.8 X
Track quality 99.9 %
Test CRC 0F46162D
Copy CRC 0F46162D
Accurately ripped (confidence 4) [49BA922F] (AR v2)
Copy OK
Track 10
Filename G:\FLAC\10 - Tell Me Why.wav
Pre-gap length 0:00:01.48
Peak level 97.7 %
Extraction speed 1.9 X
Track quality 100.0 %
Test CRC 3224BA69
Copy CRC 3224BA69
Accurately ripped (confidence 4) [96845171] (AR v2)
Copy OK
Track 11
Filename G:\FLAC\11 - American Dream.wav
Pre-gap length 0:00:01.47
Peak level 97.7 %
Extraction speed 1.9 X
Track quality 100.0 %
Test CRC 70BDC0A9
Copy CRC 70BDC0A9
Accurately ripped (confidence 4) [E1669561] (AR v2)
Copy OK
Track 12
Filename G:\FLAC\12 - I'm So Proud.wav
Pre-gap length 0:00:02.48
Peak level 97.7 %
Extraction speed 1.8 X
Track quality 99.9 %
Test CRC B57562C1
Copy CRC B57562C1
Accurately ripped (confidence 4) [6FC15A2B] (AR v2)
Copy OK
Track 13
Filename G:\FLAC\13 - Someday We'll All Be Free.wav
Pre-gap length 0:00:01.47
Peak level 97.7 %
Extraction speed 1.9 X
Track quality 100.0 %
Test CRC 07451505
Copy CRC 07451505
Accurately ripped (confidence 4) [0C8757B6] (AR v2)
Copy OK
Track 14
Filename G:\FLAC\14 - Gifted One.wav
Pre-gap length 0:00:01.48
Peak level 92.2 %
Extraction speed 1.8 X
Track quality 99.9 %
Test CRC AD8B8539
Copy CRC AD8B8539
Accurately ripped (confidence 4) [06776701] (AR v2)
Copy OK
Track 15
Filename G:\FLAC\15 - Searching For My Love.wav
Pre-gap length 0:00:01.48
Peak level 92.2 %
Extraction speed 1.9 X
Track quality 100.0 %
Test CRC 090B055A
Copy CRC 090B055A
Accurately ripped (confidence 4) [DBAA9AD2] (AR v2)
Copy OK
Track 16
Filename G:\FLAC\16 - I Wish I Had Someone To Go Home To.wav
Pre-gap length 0:00:01.48
Peak level 97.7 %
Extraction speed 1.9 X
Track quality 99.9 %
Test CRC B9DD6997
Copy CRC B9DD6997
Accurately ripped (confidence 4) [61FF9838] (AR v2)
Copy OK
All tracks accurately ripped
No errors occurred
End of status report
==== Log checksum C84BE996F980A9E011D849EB8D61CC14FA89AA6806CF654B684D3D526CFBCB78 ====
 
CUE
REM GENRE Soul
REM DATE 2000
REM DISCID C3118810
REM COMMENT "ExactAudioCopy v1.0b3"
PERFORMER "Bobby Womack"
TITLE "The Best Of the Poet Trilogy"
FILE "01 - So Many Sides Of You.wav" WAVE
TRACK 01 AUDIO
TITLE "So Many Sides Of You"
PERFORMER "Bobby Womack"
INDEX 01 00:00:00
TRACK 02 AUDIO
TITLE "Lay Your Lovin' On Me"
PERFORMER "Bobby Womack"
INDEX 00 03:44:40
FILE "02 - Lay Your Lovin' On Me.wav" WAVE
INDEX 01 00:00:00
TRACK 03 AUDIO
TITLE "Secrets"
PERFORMER "Bobby Womack"
INDEX 00 04:01:60
FILE "03 - Secrets.wav" WAVE
INDEX 01 00:00:00
TRACK 04 AUDIO
TITLE "Just My Imagination"
PERFORMER "Bobby Womack"
INDEX 00 03:50:07
FILE "04 - Just My Imagination.wav" WAVE
INDEX 01 00:00:00
TRACK 05 AUDIO
TITLE "If You Think You're Lonely Now"
PERFORMER "Bobby Womack"
INDEX 00 05:06:35
FILE "05 - If You Think You're Lonely Now.wav" WAVE
INDEX 01 00:00:00
TRACK 06 AUDIO
TITLE "Love Has Finally Come At Last"
PERFORMER "Bobby Womack"
INDEX 00 05:26:65
FILE "06 - Love Has Finally Come At Last.wav" WAVE
INDEX 01 00:00:00
TRACK 07 AUDIO
TITLE "Through The Eyes Of A Child"
PERFORMER "Bobby Womack"
INDEX 00 05:31:22
FILE "07 - Through The Eyes Of A Child.wav" WAVE
INDEX 01 00:00:00
TRACK 08 AUDIO
TITLE "Surprise Surprise"
PERFORMER "Bobby Womack"
INDEX 00 05:11:17
FILE "08 - Surprise Surprise.wav" WAVE
INDEX 01 00:00:00
TRACK 09 AUDIO
TITLE "Tryin' To Get Over You"
PERFORMER "Bobby Womack"
INDEX 00 03:32:55
FILE "09 - Tryin' To Get Over You.wav" WAVE
INDEX 01 00:00:00
TRACK 10 AUDIO
TITLE "Tell Me Why"
PERFORMER "Bobby Womack"
INDEX 00 04:09:50
FILE "10 - Tell Me Why.wav" WAVE
INDEX 01 00:00:00
TRACK 11 AUDIO
TITLE "American Dream"
PERFORMER "Bobby Womack"
INDEX 00 06:06:10
FILE "11 - American Dream.wav" WAVE
INDEX 01 00:00:00
TRACK 12 AUDIO
TITLE "I'm So Proud"
PERFORMER "Bobby Womack"
INDEX 00 04:39:05
FILE "12 - I'm So Proud.wav" WAVE
INDEX 01 00:00:00
TRACK 13 AUDIO
TITLE "Someday We'll All Be Free"
PERFORMER "Bobby Womack"
INDEX 00 05:00:35
FILE "13 - Someday We'll All Be Free.wav" WAVE
INDEX 01 00:00:00
TRACK 14 AUDIO
TITLE "Gifted One"
PERFORMER "Bobby Womack"
INDEX 00 06:13:45
FILE "14 - Gifted One.wav" WAVE
INDEX 01 00:00:00
TRACK 15 AUDIO
TITLE "Searching For My Love"
PERFORMER "Bobby Womack"
INDEX 00 04:26:47
FILE "15 - Searching For My Love.wav" WAVE
INDEX 01 00:00:00
TRACK 16 AUDIO
TITLE "I Wish I Had Someone To Go Home To"
PERFORMER "Bobby Womack"
INDEX 00 03:42:52
FILE "16 - I Wish I Had Someone To Go Home To.wav" WAVE
INDEX 01 00:00:00
 
2001 - Across 110th Street (1972) (Charly Records - SNAP 231 CD)

Продолжительность: 30:19
01. Bobby Womack - Across 110th Street [03:47]
02. Bobby Womack - Harlem Clavinette [02:13]
03. Bobby Womack - If You Dont Want My Love [02:29]
04. Bobby Womack - Hang On In There [02:49]
05. Bobby Womack - Quicksand [01:40]
06. Bobby Womack - Harlem Love Theme [03:10]
07. Bobby Womack - Across 110th Street [02:30]
08. Bobby Womack - Do It Right [03:08]
09. Bobby Womack - Hang On In There [02:25]
10. Bobby Womack - If You Dont Want My Love [03:06]
11. Bobby Womack - Across 110th Street - Part II [02:56]
 
log and sheet
 
Log
Exact Audio Copy V0.99 prebeta 3 from 28. July 2007
EAC extraction logfile from 1. July 2009, 22:43
Bobby Womack / Across 110th Street
Used drive : TSSTcorpCDDVDW SN-S083B Adapter: 2 ID: 0
Read mode : Secure
Utilize accurate stream : Yes
Defeat audio cache : Yes
Make use of C2 pointers : No
Read offset correction : 6
Overread into Lead-In and Lead-Out : No
Fill up missing offset samples with silence : Yes
Delete leading and trailing silent blocks : No
Null samples used in CRC calculations : Yes
Used interface : Installed external ASPI interface
Gap handling : Appended to previous track
Used output format : User Defined Encoder
Selected bitrate : 768 kBit/s
Quality : High
Add ID3 tag : No
Command line compressor : C:\Program Files\Exact Audio Copy\FLAC\FLAC.EXE
Additional command line options : -8 -V -T "ARTIST=%a" -T "TITLE=%t" -T "ALBUM=%g" -T "DATE=%y" -T "TRACKNUMBER=%n" -T "TOTALTRACKS=%x" -T "GENRE=%m" -T "ALBUMARTIST=%v" -T "ALBUM ARTIST=%v" -T "COMMENT=EAC V0.99 prebeta 4, Secure Mode, Test & Copy, Accurat
TOC of the extracted CD
Track | Start | Length | Start sector | End sector
---------------------------------------------------------
1 | 0:00.00 | 3:47.33 | 0 | 17057
2 | 3:47.33 | 2:13.40 | 17058 | 27072
3 | 6:00.73 | 2:29.65 | 27073 | 38312
4 | 8:30.63 | 2:49.25 | 38313 | 51012
5 | 11:20.13 | 1:40.38 | 51013 | 58550
6 | 13:00.51 | 3:10.72 | 58551 | 72872
7 | 16:11.48 | 2:30.03 | 72873 | 84125
8 | 18:41.51 | 3:08.71 | 84126 | 98296
9 | 21:50.47 | 2:25.45 | 98297 | 109216
10 | 24:16.17 | 3:06.33 | 109217 | 123199
11 | 27:22.50 | 2:56.40 | 123200 | 136439
Track 1
Filename C:\Addis is killing my HDD\01 - Across 110th Street.wav
Pre-gap length 0:00:02.00
Peak level 95.3 %
Track quality 99.9 %
Test CRC 5F30699F
Copy CRC 5F30699F
Accurately ripped (confidence 2) [51713800]
Copy OK
Track 2
Filename C:\Addis is killing my HDD\02 - Harlem Clavinette.wav
Pre-gap length 0:00:02.00
Peak level 93.5 %
Track quality 100.0 %
Test CRC 2F408E0B
Copy CRC 2F408E0B
Accurately ripped (confidence 2) [81DCB8CB]
Copy OK
Track 3
Filename C:\Addis is killing my HDD\03 - If You Dont Want My Love.wav
Pre-gap length 0:00:02.00
Peak level 94.1 %
Track quality 100.0 %
Test CRC C4AA4FBB
Copy CRC C4AA4FBB
Accurately ripped (confidence 2) [917B2A38]
Copy OK
Track 4
Filename C:\Addis is killing my HDD\04 - Hang On In There.wav
Pre-gap length 0:00:02.00
Peak level 96.1 %
Track quality 99.9 %
Test CRC E99D593F
Copy CRC E99D593F
Accurately ripped (confidence 2) [BDFD3509]
Copy OK
Track 5
Filename C:\Addis is killing my HDD\05 - Quicksand.wav
Pre-gap length 0:00:02.00
Peak level 100.0 %
Track quality 100.0 %
Test CRC 9D3B0025
Copy CRC 9D3B0025
Accurately ripped (confidence 2) [6A0B3C94]
Copy OK
Track 6
Filename C:\Addis is killing my HDD\06 - Harlem Love Theme.wav
Pre-gap length 0:00:02.00
Peak level 85.7 %
Track quality 100.0 %
Test CRC 19375F87
Copy CRC 19375F87
Accurately ripped (confidence 2) [2C63F2E5]
Copy OK
Track 7
Filename C:\Addis is killing my HDD\07 - Across 110th Street.wav
Pre-gap length 0:00:02.00
Peak level 96.5 %
Track quality 100.0 %
Test CRC 79DD15E7
Copy CRC 79DD15E7
Accurately ripped (confidence 2) [2A4F5890]
Copy OK
Track 8
Filename C:\Addis is killing my HDD\08 - Do It Right.wav
Pre-gap length 0:00:02.00
Peak level 90.7 %
Track quality 99.9 %
Test CRC E9FE56E0
Copy CRC E9FE56E0
Accurately ripped (confidence 2) [A4F68B1E]
Copy OK
Track 9
Filename C:\Addis is killing my HDD\09 - Hang On In There.wav
Pre-gap length 0:00:02.00
Peak level 94.1 %
Track quality 100.0 %
Test CRC FF8A37AC
Copy CRC FF8A37AC
Accurately ripped (confidence 2) [E8DD0AFD]
Copy OK
Track 10
Filename C:\Addis is killing my HDD\10 - If You Dont Want My Love.wav
Pre-gap length 0:00:02.00
Peak level 94.4 %
Track quality 100.0 %
Test CRC D0B0E3C5
Copy CRC D0B0E3C5
Accurately ripped (confidence 2) [39B9D242]
Copy OK
Track 11
Filename C:\Addis is killing my HDD\11 - Across 110th Street - Part II.wav
Pre-gap length 0:00:02.00
Peak level 95.2 %
Track quality 100.0 %
Test CRC 9AF9C4BA
Copy CRC 9AF9C4BA
Accurately ripped (confidence 2) [3C386648]
Copy OK
All tracks accurately ripped
No errors occurred
End of status report
 
CUE
REM GENRE Soundtrack
REM DATE 1972
REM DISCID 85071B0B
REM COMMENT "ExactAudioCopy v0.99pb3"
PERFORMER "Bobby Womack"
TITLE "Across 110th Street"
FILE "01 - Across 110th Street.wav" WAVE
TRACK 01 AUDIO
TITLE "Across 110th Street"
PERFORMER "Bobby Womack"
INDEX 01 00:00:00
TRACK 02 AUDIO
TITLE "Harlem Clavinette"
PERFORMER "Bobby Womack"
INDEX 00 03:45:33
FILE "02 - Harlem Clavinette.wav" WAVE
INDEX 01 00:00:00
TRACK 03 AUDIO
TITLE "If You Dont Want My Love"
PERFORMER "Bobby Womack"
INDEX 00 02:11:40
FILE "03 - If You Dont Want My Love.wav" WAVE
INDEX 01 00:00:00
TRACK 04 AUDIO
TITLE "Hang On In There"
PERFORMER "Bobby Womack"
INDEX 00 02:27:65
FILE "04 - Hang On In There.wav" WAVE
INDEX 01 00:00:00
TRACK 05 AUDIO
TITLE "Quicksand"
PERFORMER "Bobby Womack"
INDEX 00 02:47:25
FILE "05 - Quicksand.wav" WAVE
INDEX 01 00:00:00
TRACK 06 AUDIO
TITLE "Harlem Love Theme"
PERFORMER "Bobby Womack"
INDEX 00 01:38:38
FILE "06 - Harlem Love Theme.wav" WAVE
INDEX 01 00:00:00
TRACK 07 AUDIO
TITLE "Across 110th Street"
PERFORMER "Bobby Womack"
INDEX 00 03:08:72
FILE "07 - Across 110th Street.wav" WAVE
INDEX 01 00:00:00
TRACK 08 AUDIO
TITLE "Do It Right"
PERFORMER "Bobby Womack"
INDEX 00 02:28:03
FILE "08 - Do It Right.wav" WAVE
INDEX 01 00:00:00
TRACK 09 AUDIO
TITLE "Hang On In There"
PERFORMER "Bobby Womack"
INDEX 00 03:06:71
FILE "09 - Hang On In There.wav" WAVE
INDEX 01 00:00:00
TRACK 10 AUDIO
TITLE "If You Dont Want My Love"
PERFORMER "Bobby Womack"
INDEX 00 02:23:45
FILE "10 - If You Dont Want My Love.wav" WAVE
INDEX 01 00:00:00
TRACK 11 AUDIO
TITLE "Across 110th Street - Part II"
PERFORMER "Bobby Womack"
INDEX 00 03:04:33
FILE "11 - Across 110th Street - Part II.wav" WAVE
INDEX 01 00:00:00
 
2004 (1973\1975) - Facts Of Life & I Don't Know What The World Is Coming To (7243 8 74403 2 6)
Продолжительность: 74 min 57 sec
Facts Of Life
1.Nobody Wants You When You Are Down And Out (3:04)
2.I'm Through Trying To Prove My Love To You (3:48)
3.If You Can't Give Her Love Give Her Up (2:48)
4.That's Heaven To Me (2:51)
5.Medley: Holdin' On To My Baby's Love/Nobody (3:10)
6.Medley: Facts of Life/He'll Be There When The Sun Goes Down (6:18)
7.Can't Stop A Man In Love (2:22)
8.The Look Of Love (3:33)
9.Natural Man (2:44)
10.All Along The Watchtower (3:22)
I Don't Know What The World Is Coming To
11.Interlude No1 - I Don't Know (3:14)
12.Superstar (3:36)
13.If You Want My Love, Put Something Down On It (3:43)
14.Git It (4:23)
15.What's Your World (5:14)
16.Check It Out (3:50)
17.Interlude No2 (3:51)
18.Jealous Love (5:48)
19.It's All Over Now (2:55)
20.Yes, Jesus Loves Me (4:23)
 
Log EAC
Exact Audio Copy V0.99 prebeta 5 from 4. May 2009
EAC extraction logfile from 11. March 2010, 22:02
Bobby Womack / Facts Of Life/I Don't Know What The World Is Coming To
Used drive : Optiarc DVD RW AD-7170A Adapter: 0 ID: 1
Read mode : Secure
Utilize accurate stream : Yes
Defeat audio cache : Yes
Make use of C2 pointers : No
Read offset correction : 48
Overread into Lead-In and Lead-Out : No
Fill up missing offset samples with silence : Yes
Delete leading and trailing silent blocks : No
Null samples used in CRC calculations : Yes
Used interface : Native Win32 interface for Win NT & 2000
Gap handling : Appended to previous track
Used output format : User Defined Encoder
Selected bitrate : 128 kBit/s
Quality : High
Add ID3 tag : No
Command line compressor : C:\Program Files\FLAC\flac.exe
Additional command line options : -5 -V -T "ARTIST=%a" -T "TITLE=%t" -T "ALBUM=%g" -T "DATE=%y" -T "TRACKNUMBER=%n" -T "GENRE=%m" -T "COMMENT=Ripped for yetiisyou" %s
TOC of the extracted CD
Track | Start | Length | Start sector | End sector
---------------------------------------------------------
1 | 0:00.00 | 3:04.49 | 0 | 13848
2 | 3:04.49 | 3:48.15 | 13849 | 30963
3 | 6:52.64 | 2:48.33 | 30964 | 43596
4 | 9:41.22 | 2:51.62 | 43597 | 56483
5 | 12:33.09 | 3:10.72 | 56484 | 70805
6 | 15:44.06 | 6:18.70 | 70806 | 99225
7 | 22:03.01 | 2:22.29 | 99226 | 109904
8 | 24:25.30 | 3:33.38 | 109905 | 125917
9 | 27:58.68 | 2:44.56 | 125918 | 138273
10 | 30:43.49 | 3:22.70 | 138274 | 153493
11 | 34:06.44 | 3:14.49 | 153494 | 168092
12 | 37:21.18 | 3:36.74 | 168093 | 184366
13 | 40:58.17 | 3:43.59 | 184367 | 201150
14 | 44:42.01 | 4:23.55 | 201151 | 220930
15 | 49:05.56 | 5:14.58 | 220931 | 244538
16 | 54:20.39 | 3:50.30 | 244539 | 261818
17 | 58:10.69 | 3:51.03 | 261819 | 279146
18 | 62:01.72 | 5:48.63 | 279147 | 305309
19 | 67:50.60 | 2:55.64 | 305310 | 318498
20 | 70:46.49 | 4:23.71 | 318499 | 338294
Track 1
Filename E:\!Rips\FUNK @ SOUL\Bobby Womack - Facts Of Life & I Don't Know What The World Is Coming To (7243 8 74403 2 6)\01 – Nobody Wants You When You Are Down And Out.wav
Pre-gap length 0:00:02.00
Peak level 98.7 %
Track quality 99.8 %
Test CRC 92CAB98B
Copy CRC 92CAB98B
Accurately ripped (confidence 3) [B54D0670]
Copy OK
Track 2
Filename E:\!Rips\FUNK @ SOUL\Bobby Womack - Facts Of Life & I Don't Know What The World Is Coming To (7243 8 74403 2 6)\02 – I'm Through Trying To Prove My Love To You.wav
Pre-gap length 0:00:00.86
Peak level 98.4 %
Track quality 100.0 %
Test CRC 3E932E77
Copy CRC 3E932E77
Accurately ripped (confidence 3) [8162CBC0]
Copy OK
Track 3
Filename E:\!Rips\FUNK @ SOUL\Bobby Womack - Facts Of Life & I Don't Know What The World Is Coming To (7243 8 74403 2 6)\03 – If You Can't Give Her Love Give Her Up.wav
Pre-gap length 0:00:00.64
Peak level 98.6 %
Track quality 100.0 %
Test CRC 5A629A8B
Copy CRC 5A629A8B
Accurately ripped (confidence 3) [350B3E52]
Copy OK
Track 4
Filename E:\!Rips\FUNK @ SOUL\Bobby Womack - Facts Of Life & I Don't Know What The World Is Coming To (7243 8 74403 2 6)\04 – That's Heaven To Me.wav
Pre-gap length 0:00:01.44
Peak level 98.0 %
Track quality 100.0 %
Test CRC 3B05FF46
Copy CRC 3B05FF46
Accurately ripped (confidence 3) [CA743DEB]
Copy OK
Track 5
Filename E:\!Rips\FUNK @ SOUL\Bobby Womack - Facts Of Life & I Don't Know What The World Is Coming To (7243 8 74403 2 6)\05 – Medley- Holdin' On To My Baby's Love,Nobody.wav
Pre-gap length 0:00:00.66
Peak level 98.0 %
Track quality 100.0 %
Test CRC A15BC699
Copy CRC A15BC699
Accurately ripped (confidence 3) [2C4F8107]
Copy OK
Track 6
Filename E:\!Rips\FUNK @ SOUL\Bobby Womack - Facts Of Life & I Don't Know What The World Is Coming To (7243 8 74403 2 6)\06 – Medley- Facts of Life,He'll Be There When The Sun Goes Down.wav
Pre-gap length 0:00:01.85
Peak level 98.0 %
Track quality 99.9 %
Test CRC 10641471
Copy CRC 10641471
Accurately ripped (confidence 3) [3F2740DA]
Copy OK
Track 7
Filename E:\!Rips\FUNK @ SOUL\Bobby Womack - Facts Of Life & I Don't Know What The World Is Coming To (7243 8 74403 2 6)\07 – Can't Stop A Man In Love.wav
Peak level 98.0 %
Track quality 100.0 %
Test CRC 1C09F5E6
Copy CRC 1C09F5E6
Accurately ripped (confidence 3) [B155377B]
Copy OK
Track 8
Filename E:\!Rips\FUNK @ SOUL\Bobby Womack - Facts Of Life & I Don't Know What The World Is Coming To (7243 8 74403 2 6)\08 – The Look Of Love.wav
Pre-gap length 0:00:00.69
Peak level 98.0 %
Track quality 99.9 %
Test CRC B59AA453
Copy CRC B59AA453
Accurately ripped (confidence 3) [7BE5D62D]
Copy OK
Track 9
Filename E:\!Rips\FUNK @ SOUL\Bobby Womack - Facts Of Life & I Don't Know What The World Is Coming To (7243 8 74403 2 6)\09 – Natural Man.wav
Pre-gap length 0:00:01.58
Peak level 98.0 %
Track quality 100.0 %
Test CRC D83F2BC8
Copy CRC D83F2BC8
Accurately ripped (confidence 3) [94869247]
Copy OK
Track 10
Filename E:\!Rips\FUNK @ SOUL\Bobby Womack - Facts Of Life & I Don't Know What The World Is Coming To (7243 8 74403 2 6)\10 – All Along The Watchtower.wav
Peak level 98.0 %
Track quality 100.0 %
Test CRC 6EB0660F
Copy CRC 6EB0660F
Accurately ripped (confidence 3) [F789B022]
Copy OK
Track 11
Filename E:\!Rips\FUNK @ SOUL\Bobby Womack - Facts Of Life & I Don't Know What The World Is Coming To (7243 8 74403 2 6)\11 – Interlude No1 - I Don't Know.wav
Pre-gap length 0:00:01.29
Peak level 98.0 %
Track quality 100.0 %
Test CRC 3F775D7D
Copy CRC 3F775D7D
Accurately ripped (confidence 3) [07C41FEB]
Copy OK
Track 12
Filename E:\!Rips\FUNK @ SOUL\Bobby Womack - Facts Of Life & I Don't Know What The World Is Coming To (7243 8 74403 2 6)\12 – Superstar.wav
Pre-gap length 0:00:01.13
Peak level 98.0 %
Track quality 100.0 %
Test CRC E455C340
Copy CRC E455C340
Accurately ripped (confidence 3) [B1288765]
Copy OK
Track 13
Filename E:\!Rips\FUNK @ SOUL\Bobby Womack - Facts Of Life & I Don't Know What The World Is Coming To (7243 8 74403 2 6)\13 – If You Want My Love, Put Something Down On It.wav
Pre-gap length 0:00:02.86
Peak level 98.0 %
Track quality 99.9 %
Test CRC CE0CEE11
Copy CRC CE0CEE11
Accurately ripped (confidence 3) [6223305D]
Copy OK
Track 14
Filename E:\!Rips\FUNK @ SOUL\Bobby Womack - Facts Of Life & I Don't Know What The World Is Coming To (7243 8 74403 2 6)\14 – Git It.wav
Pre-gap length 0:00:02.68
Peak level 98.0 %
Track quality 99.9 %
Test CRC EC019174
Copy CRC ACD59038
Accurately ripped (confidence 3) [3B797163]
Copy OK
Track 15
Filename E:\!Rips\FUNK @ SOUL\Bobby Womack - Facts Of Life & I Don't Know What The World Is Coming To (7243 8 74403 2 6)\15 – What's Your World.wav
Pre-gap length 0:00:00.10
Peak level 98.1 %
Track quality 99.9 %
Test CRC 54F2E32F
Copy CRC 54F2E32F
Accurately ripped (confidence 3) [292D5D7F]
Copy OK
Track 16
Filename E:\!Rips\FUNK @ SOUL\Bobby Womack - Facts Of Life & I Don't Know What The World Is Coming To (7243 8 74403 2 6)\16 – Check It Out.wav
Pre-gap length 0:00:00.72
Peak level 98.0 %
Track quality 100.0 %
Test CRC F3909A5A
Copy CRC F3909A5A
Accurately ripped (confidence 3) [38FB6B5F]
Copy OK
Track 17
Filename E:\!Rips\FUNK @ SOUL\Bobby Womack - Facts Of Life & I Don't Know What The World Is Coming To (7243 8 74403 2 6)\17 – Interlude No2.wav
Pre-gap length 0:00:02.20
Peak level 98.0 %
Track quality 100.0 %
Test CRC 0650CDB8
Copy CRC 0650CDB8
Accurately ripped (confidence 3) [FAB154FE]
Copy OK
Track 18
Filename E:\!Rips\FUNK @ SOUL\Bobby Womack - Facts Of Life & I Don't Know What The World Is Coming To (7243 8 74403 2 6)\18 – Jealous Love.wav
Pre-gap length 0:00:00.76
Peak level 97.9 %
Track quality 100.0 %
Test CRC A9E68142
Copy CRC A9E68142
Accurately ripped (confidence 3) [252C8199]
Copy OK
Track 19
Filename E:\!Rips\FUNK @ SOUL\Bobby Womack - Facts Of Life & I Don't Know What The World Is Coming To (7243 8 74403 2 6)\19 – It's All Over Now.wav
Pre-gap length 0:00:01.54
Peak level 97.9 %
Track quality 100.0 %
Test CRC B4308123
Copy CRC B4308123
Accurately ripped (confidence 3) [35A7BBDD]
Copy OK
Track 20
Filename E:\!Rips\FUNK @ SOUL\Bobby Womack - Facts Of Life & I Don't Know What The World Is Coming To (7243 8 74403 2 6)\20 – Yes, Jesus Loves Me.wav
Pre-gap length 0:00:02.12
Peak level 98.0 %
Track quality 100.0 %
Test CRC 87D5A2B4
Copy CRC 87D5A2B4
Accurately ripped (confidence 3) [95A6BCA8]
Copy OK
All tracks accurately ripped
No errors occurred
End of status report
 
CUE
REM GENRE Soul
REM DATE 2004
REM DISCID 29119E14
REM COMMENT "ExactAudioCopy v0.99pb5"
PERFORMER "Bobby Womack"
TITLE "Facts Of Life/I Don't Know What The World Is Coming To"
FILE "01 – Nobody Wants You When You Are Down And Out.wav" WAVE
TRACK 01 AUDIO
TITLE "Nobody Wants You When You Are Down And Out"
PERFORMER "Bobby Womack"
INDEX 01 00:00:00
TRACK 02 AUDIO
TITLE "I'm Through Trying To Prove My Love To You"
PERFORMER "Bobby Womack"
INDEX 00 03:03:59
FILE "02 – I'm Through Trying To Prove My Love To You.wav" WAVE
INDEX 01 00:00:00
TRACK 03 AUDIO
TITLE "If You Can't Give Her Love Give Her Up"
PERFORMER "Bobby Womack"
INDEX 00 03:47:42
FILE "03 – If You Can't Give Her Love Give Her Up.wav" WAVE
INDEX 01 00:00:00
TRACK 04 AUDIO
TITLE "That's Heaven To Me"
PERFORMER "Bobby Womack"
INDEX 00 02:47:00
FILE "04 – That's Heaven To Me.wav" WAVE
INDEX 01 00:00:00
TRACK 05 AUDIO
TITLE "Medley: Holdin' On To My Baby's Love/Nobody"
PERFORMER "Bobby Womack"
INDEX 00 02:51:12
FILE "05 – Medley- Holdin' On To My Baby's Love,Nobody.wav" WAVE
INDEX 01 00:00:00
TRACK 06 AUDIO
TITLE "Medley: Facts of Life/He'll Be There When The Sun Goes Down"
PERFORMER "Bobby Womack"
INDEX 00 03:09:08
FILE "06 – Medley- Facts of Life,He'll Be There When The Sun Goes Down.wav" WAVE
INDEX 01 00:00:00
FILE "07 – Can't Stop A Man In Love.wav" WAVE
TRACK 07 AUDIO
TITLE "Can't Stop A Man In Love"
PERFORMER "Bobby Womack"
INDEX 01 00:00:00
TRACK 08 AUDIO
TITLE "The Look Of Love"
PERFORMER "Bobby Womack"
INDEX 00 02:21:52
FILE "08 – The Look Of Love.wav" WAVE
INDEX 01 00:00:00
TRACK 09 AUDIO
TITLE "Natural Man"
PERFORMER "Bobby Womack"
INDEX 00 03:31:69
FILE "09 – Natural Man.wav" WAVE
INDEX 01 00:00:00
FILE "10 – All Along The Watchtower.wav" WAVE
TRACK 10 AUDIO
TITLE "All Along The Watchtower"
PERFORMER "Bobby Womack"
INDEX 01 00:00:00
TRACK 11 AUDIO
TITLE "Interlude No1 - I Don't Know"
PERFORMER "Bobby Womack"
INDEX 00 03:21:48
FILE "11 – Interlude No1 - I Don't Know.wav" WAVE
INDEX 01 00:00:00
TRACK 12 AUDIO
TITLE "Superstar"
PERFORMER "Bobby Womack"
INDEX 00 03:13:39
FILE "12 – Superstar.wav" WAVE
INDEX 01 00:00:00
TRACK 13 AUDIO
TITLE "If You Want My Love, Put Something Down On It"
PERFORMER "Bobby Womack"
INDEX 00 03:34:09
FILE "13 – If You Want My Love, Put Something Down On It.wav" WAVE
INDEX 01 00:00:00
TRACK 14 AUDIO
TITLE "Git It"
PERFORMER "Bobby Womack"
INDEX 00 03:41:08
FILE "14 – Git It.wav" WAVE
INDEX 01 00:00:00
TRACK 15 AUDIO
TITLE "What's Your World"
PERFORMER "Bobby Womack"
INDEX 00 04:23:47
FILE "15 – What's Your World.wav" WAVE
INDEX 01 00:00:00
TRACK 16 AUDIO
TITLE "Check It Out"
PERFORMER "Bobby Womack"
INDEX 00 05:14:04
FILE "16 – Check It Out.wav" WAVE
INDEX 01 00:00:00
TRACK 17 AUDIO
TITLE "Interlude No2"
PERFORMER "Bobby Womack"
INDEX 00 03:48:15
FILE "17 – Interlude No2.wav" WAVE
INDEX 01 00:00:00
TRACK 18 AUDIO
TITLE "Jealous Love"
PERFORMER "Bobby Womack"
INDEX 00 03:50:21
FILE "18 – Jealous Love.wav" WAVE
INDEX 01 00:00:00
TRACK 19 AUDIO
TITLE "It's All Over Now"
PERFORMER "Bobby Womack"
INDEX 00 05:47:22
FILE "19 – It's All Over Now.wav" WAVE
INDEX 01 00:00:00
TRACK 20 AUDIO
TITLE "Yes, Jesus Loves Me"
PERFORMER "Bobby Womack"
INDEX 00 02:53:55
FILE "20 – Yes, Jesus Loves Me.wav" WAVE
INDEX 01 00:00:00
Приватный:
Нет (DHT включён)
Размер:
5.47 Гб (5,877,231,354 байт) » файлов: 383
Участники:
0 раздают, 0 качают (0 участников всего)
Внешние участники:
3 раздают, 1 качают (4 участников всего) [ Обновить ]
Нет сидеров - пишите личное сообщение M0p94ok. Не нравятся торренты? Участники группы Pro-jazz Club могут заказать прямую ссылку на скачивание из облака.
No seeders - write a personal message to M0p94ok. Don't like torrents? Members of Pro-jazz Club group can order a direct download link from the cloud.
02:58
23
Нет комментариев. Ваш будет первым!