Поиск

(Funk, Soul, soft rock) [CD] Boz Scaggs - 5 releases - 1971-1994, FLAC (tracks+.cue), lossless

(Funk, Soul, soft rock) [CD] Boz Scaggs - 5 releases - 1971-1994, FLAC (tracks+.cue), lossless
Треклист:
Boz Scaggs
Жанр: Funk, Soul, soft rock
Год выпуска диска: 1971-1994
Аудио кодек: FLAC
Тип рипа: tracks+.cue
Битрейт аудио: lossless
Продолжительность: 03:39:09
Собственноручные рипы с оригинальных дисков от funky_cat!:
Down Two Then Left & Silk Degrees
остальные, добавленные три штучки, получены с "другого" трекера:
1971 - Boz Scaggs and Band {2005 Japanese Remaster} (MHCP 560)
1988 - Other Roads (CBS 461121 2)
1994 - Some Change (7243 8 39489 2 5)
 
1971 - Boz Scaggs and Band {2005 Japanese Remaster} [MHCP 560]

Продолжительность: 35:05
01. Boz Scaggs - Monkey Time [3:05]
02. Boz Scaggs - Runnin' Blue [4:00]
03. Boz Scaggs - Up To You [3:39]
04. Boz Scaggs - Love Anyway [3:30]
05. Boz Scaggs - Flames Of Love [4:39]
06. Boz Scaggs - Here To Stay [2:36]
07. Boz Scaggs - Nothing Will Take Your Place [3:49]
08. Boz Scaggs - Why Why [5:37]
09. Boz Scaggs - You're So Good [4:10]
 
log and sheet
 
Log
EAC extraction logfile from 18. June 2008, 19:14 for CD
Boz Scaggs / Boz Scaggs & Band
Used drive : SAMSUNG DVD-ROM SD-616T Adapter: 1 ID: 0
Read mode : Secure with NO C2, accurate stream, disable cache
Read offset correction : 1182
Overread into Lead-In and Lead-Out : No
Used output format : Internal WAV Routines
44.100 Hz; 16 Bit; Stereo
Other options :
Fill up missing offset samples with silence : Yes
Delete leading and trailing silent blocks : No
Installed external ASPI interface
Track 1
Filename C:\Download cache\Boz Scaggs - Boz Scaggs and Band (1971) [FLAC] {2005 Japanese Remaster}\01 - Monkey Time.wav
Pre-gap length 0:00:02.00
Peak level 99.8 %
Track quality 100.0 %
Test CRC 1E89048D
Copy CRC 1E89048D
Copy OK
Track 2
Filename C:\Download cache\Boz Scaggs - Boz Scaggs and Band (1971) [FLAC] {2005 Japanese Remaster}\02 - Runnin' Blue.wav
Pre-gap length 0:00:03.08
Peak level 99.3 %
Track quality 100.0 %
Test CRC ED76DD75
Copy CRC ED76DD75
Copy OK
Track 3
Filename C:\Download cache\Boz Scaggs - Boz Scaggs and Band (1971) [FLAC] {2005 Japanese Remaster}\03 - Up To You.wav
Pre-gap length 0:00:02.50
Peak level 97.4 %
Track quality 100.0 %
Test CRC 330B5CF1
Copy CRC 330B5CF1
Copy OK
Track 4
Filename C:\Download cache\Boz Scaggs - Boz Scaggs and Band (1971) [FLAC] {2005 Japanese Remaster}\04 - Love Anyway.wav
Pre-gap length 0:00:02.20
Peak level 98.6 %
Track quality 100.0 %
Test CRC B5204718
Copy CRC B5204718
Copy OK
Track 5
Filename C:\Download cache\Boz Scaggs - Boz Scaggs and Band (1971) [FLAC] {2005 Japanese Remaster}\05 - Flames Of Love.wav
Peak level 96.7 %
Track quality 100.0 %
Test CRC F648323A
Copy CRC F648323A
Copy OK
Track 6
Filename C:\Download cache\Boz Scaggs - Boz Scaggs and Band (1971) [FLAC] {2005 Japanese Remaster}\06 - Here To Stay.wav
Pre-gap length 0:00:02.35
Peak level 97.5 %
Track quality 100.0 %
Test CRC DBA53E53
Copy CRC DBA53E53
Copy OK
Track 7
Filename C:\Download cache\Boz Scaggs - Boz Scaggs and Band (1971) [FLAC] {2005 Japanese Remaster}\07 - Nothing Will Take Your Place.wav
Peak level 98.8 %
Track quality 100.0 %
Test CRC 8B40C071
Copy CRC 8B40C071
Copy OK
Track 8
Filename C:\Download cache\Boz Scaggs - Boz Scaggs and Band (1971) [FLAC] {2005 Japanese Remaster}\08 - Why Why.wav
Pre-gap length 0:00:02.38
Peak level 99.0 %
Track quality 100.0 %
Test CRC F7847217
Copy CRC F7847217
Copy OK
Track 9
Filename C:\Download cache\Boz Scaggs - Boz Scaggs and Band (1971) [FLAC] {2005 Japanese Remaster}\09 - You're So Good.wav
Pre-gap length 0:00:02.47
Peak level 97.2 %
Track quality 100.0 %
Test CRC 35DC0F81
Copy CRC 35DC0F81
Copy OK
No errors occured
End of status report
------------------------------------------------------------
EAC extraction logfile from 18. June 2008, 19:14 for CD
Boz Scaggs / Boz Scaggs & Band
Used drive : SAMSUNG DVD-ROM SD-616T Adapter: 1 ID: 0
Read mode : Secure with NO C2, accurate stream, disable cache
Read offset correction : 1182
Overread into Lead-In and Lead-Out : No
Used output format : Internal WAV Routines
44.100 Hz; 16 Bit; Stereo
Other options :
Fill up missing offset samples with silence : Yes
Delete leading and trailing silent blocks : No
Installed external ASPI interface
Track 1
Filename C:\Download cache\Boz Scaggs - Boz Scaggs and Band (1971) [FLAC] {2005 Japanese Remaster}\01 - Monkey Time.wav
Pre-gap length 0:00:02.00
Peak level 99.8 %
Track quality 100.0 %
Test CRC 1E89048D
Copy CRC 1E89048D
Copy OK
Track 2
Filename C:\Download cache\Boz Scaggs - Boz Scaggs and Band (1971) [FLAC] {2005 Japanese Remaster}\02 - Runnin' Blue.wav
Pre-gap length 0:00:03.08
Peak level 99.3 %
Track quality 100.0 %
Test CRC ED76DD75
Copy CRC ED76DD75
Copy OK
Track 3
Filename C:\Download cache\Boz Scaggs - Boz Scaggs and Band (1971) [FLAC] {2005 Japanese Remaster}\03 - Up To You.wav
Pre-gap length 0:00:02.50
Peak level 97.4 %
Track quality 100.0 %
Test CRC 330B5CF1
Copy CRC 330B5CF1
Copy OK
Track 4
Filename C:\Download cache\Boz Scaggs - Boz Scaggs and Band (1971) [FLAC] {2005 Japanese Remaster}\04 - Love Anyway.wav
Pre-gap length 0:00:02.20
Peak level 98.6 %
Track quality 100.0 %
Test CRC B5204718
Copy CRC B5204718
Copy OK
Track 5
Filename C:\Download cache\Boz Scaggs - Boz Scaggs and Band (1971) [FLAC] {2005 Japanese Remaster}\05 - Flames Of Love.wav
Peak level 96.7 %
Track quality 100.0 %
Test CRC F648323A
Copy CRC F648323A
Copy OK
Track 6
Filename C:\Download cache\Boz Scaggs - Boz Scaggs and Band (1971) [FLAC] {2005 Japanese Remaster}\06 - Here To Stay.wav
Pre-gap length 0:00:02.35
Peak level 97.5 %
Track quality 100.0 %
Test CRC DBA53E53
Copy CRC DBA53E53
Copy OK
Track 7
Filename C:\Download cache\Boz Scaggs - Boz Scaggs and Band (1971) [FLAC] {2005 Japanese Remaster}\07 - Nothing Will Take Your Place.wav
Peak level 98.8 %
Track quality 100.0 %
Test CRC 8B40C071
Copy CRC 8B40C071
Copy OK
Track 8
Filename C:\Download cache\Boz Scaggs - Boz Scaggs and Band (1971) [FLAC] {2005 Japanese Remaster}\08 - Why Why.wav
Pre-gap length 0:00:02.38
Peak level 99.0 %
Track quality 100.0 %
Test CRC F7847217
Copy CRC F7847217
Copy OK
Track 9
Filename C:\Download cache\Boz Scaggs - Boz Scaggs and Band (1971) [FLAC] {2005 Japanese Remaster}\09 - You're So Good.wav
Pre-gap length 0:00:02.47
Peak level 97.2 %
Track quality 100.0 %
Test CRC 35DC0F81
Copy CRC 35DC0F81
Copy OK
No errors occured
End of status report
 
CUE
PERFORMER "Boz Scaggs"
TITLE "Boz Scaggs & Band"
FILE "01 - Monkey Time.wav" WAVE
TRACK 01 AUDIO
TITLE "Monkey Time"
PERFORMER "Boz Scaggs"
INDEX 01 00:00:00
TRACK 02 AUDIO
TITLE "Runnin' Blue"
PERFORMER "Boz Scaggs"
INDEX 00 03:01:57
FILE "02 - Runnin' Blue.wav" WAVE
INDEX 01 00:00:00
TRACK 03 AUDIO
TITLE "Up To You"
PERFORMER "Boz Scaggs"
INDEX 00 03:57:25
FILE "03 - Up To You.wav" WAVE
INDEX 01 00:00:00
TRACK 04 AUDIO
TITLE "Love Anyway"
PERFORMER "Boz Scaggs"
INDEX 00 03:36:57
FILE "04 - Love Anyway.wav" WAVE
INDEX 01 00:00:00
FILE "05 - Flames Of Love.wav" WAVE
TRACK 05 AUDIO
TITLE "Flames Of Love"
PERFORMER "Boz Scaggs"
INDEX 01 00:00:00
TRACK 06 AUDIO
TITLE "Here To Stay"
PERFORMER "Boz Scaggs"
INDEX 00 04:36:18
FILE "06 - Here To Stay.wav" WAVE
INDEX 01 00:00:00
FILE "07 - Nothing Will Take Your Place.wav" WAVE
TRACK 07 AUDIO
TITLE "Nothing Will Take Your Place"
PERFORMER "Boz Scaggs"
INDEX 01 00:00:00
TRACK 08 AUDIO
TITLE "Why Why"
PERFORMER "Boz Scaggs"
INDEX 00 03:46:32
FILE "08 - Why Why.wav" WAVE
INDEX 01 00:00:00
TRACK 09 AUDIO
TITLE "You're So Good"
PERFORMER "Boz Scaggs"
INDEX 00 05:34:00
FILE "09 - You're So Good.wav" WAVE
INDEX 01 00:00:00
 
1977 - Down Two Then Left (CK 34729)
Продолжительность: 42 min 33 sec
1. Boz Scaggs - Still Falling For You (3:54)
2. Boz Scaggs - Hard Times (4:28)
3. Boz Scaggs - A Clue (3:53)
4. Boz Scaggs - Whatcha Gonna Tell Your Man (3:51)
5. Boz Scaggs - We're Waiting (6:20)
6. Boz Scaggs - Hollywood (3:09)
7. Boz Scaggs - Then She Walked Away (4:06)
8. Boz Scaggs - Gimme the Goods (4:12)
9. Boz Scaggs - 1993 (4:02)
10. Boz Scaggs - Tomorrow Never Came (4:38)
 
Log EAC
Exact Audio Copy V0.99 prebeta 5 from 4. May 2009
EAC extraction logfile from 7. March 2010, 12:58
Boz Scaggs / Down Two Then Left
Used drive : ASUS DRW-1608P2 Adapter: 0 ID: 0
Read mode : Secure
Utilize accurate stream : Yes
Defeat audio cache : Yes
Make use of C2 pointers : No
Read offset correction : 48
Overread into Lead-In and Lead-Out : No
Fill up missing offset samples with silence : Yes
Delete leading and trailing silent blocks : No
Null samples used in CRC calculations : Yes
Used interface : Native Win32 interface for Win NT & 2000
Gap handling : Appended to previous track
Used output format : User Defined Encoder
Selected bitrate : 320 kBit/s
Quality : High
Add ID3 tag : No
Command line compressor : C:\Program Files\FLAC\flac.exe
Additional command line options : -5 -V -T "ARTIST=%a" -T "TITLE=%t" -T "ALBUM=%g" -T "DATE=%y" -T "TRACKNUMBER=%n" -T "GENRE=%m" -T "COMMENT=Ripped By andygrakoff aka yetiisyou" %s
TOC of the extracted CD
Track | Start | Length | Start sector | End sector
---------------------------------------------------------
1 | 0:00.00 | 3:54.30 | 0 | 17579
2 | 3:54.30 | 4:28.05 | 17580 | 37684
3 | 8:22.35 | 3:53.10 | 37685 | 55169
4 | 12:15.45 | 3:51.37 | 55170 | 72531
5 | 16:07.07 | 6:20.43 | 72532 | 101074
6 | 22:27.50 | 3:09.42 | 101075 | 115291
7 | 25:37.17 | 4:06.05 | 115292 | 133746
8 | 29:43.22 | 4:12.63 | 133747 | 152709
9 | 33:56.10 | 4:02.22 | 152710 | 170881
10 | 37:58.32 | 4:38.25 | 170882 | 191756
Track 1
Filename E:\!Rips\FUNK @ SOUL\Boz Scaggs - Down Two Then Left (CK 34729)\01 – Still Falling For You.wav
Pre-gap length 0:00:02.00
Peak level 93.0 %
Track quality 100.0 %
Test CRC 2DB16BA0
Copy CRC 2DB16BA0
Cannot be verified as accurate (confidence 2) [B04092FE], AccurateRip returned [E8937699]
Copy OK
Track 2
Filename E:\!Rips\FUNK @ SOUL\Boz Scaggs - Down Two Then Left (CK 34729)\02 – Hard Times.wav
Pre-gap length 0:00:01.13
Peak level 97.7 %
Track quality 100.0 %
Test CRC 1BE54942
Copy CRC 1BE54942
Cannot be verified as accurate (confidence 2) [E6356073], AccurateRip returned [02D056E7]
Copy OK
Track 3
Filename E:\!Rips\FUNK @ SOUL\Boz Scaggs - Down Two Then Left (CK 34729)\03 – A Clue.wav
Pre-gap length 0:00:01.57
Peak level 93.7 %
Track quality 100.0 %
Test CRC 3E6FD89A
Copy CRC 3E6FD89A
Cannot be verified as accurate (confidence 2) [D8EC5EDA], AccurateRip returned [98B38F08]
Copy OK
Track 4
Filename E:\!Rips\FUNK @ SOUL\Boz Scaggs - Down Two Then Left (CK 34729)\04 – Whatcha Gonna Tell Your Man.wav
Pre-gap length 0:00:00.04
Peak level 100.0 %
Track quality 100.0 %
Test CRC 6721CA84
Copy CRC 6721CA84
Cannot be verified as accurate (confidence 2) [07BDCF9A], AccurateRip returned [52DAC92D]
Copy OK
Track 5
Filename E:\!Rips\FUNK @ SOUL\Boz Scaggs - Down Two Then Left (CK 34729)\05 – We're Waiting.wav
Pre-gap length 0:00:01.46
Peak level 96.6 %
Track quality 100.0 %
Test CRC F0956844
Copy CRC F0956844
Cannot be verified as accurate (confidence 2) [733038AE], AccurateRip returned [2C91606D]
Copy OK
Track 6
Filename E:\!Rips\FUNK @ SOUL\Boz Scaggs - Down Two Then Left (CK 34729)\06 – Hollywood.wav
Pre-gap length 0:00:01.84
Peak level 91.9 %
Track quality 100.0 %
Test CRC DD376F04
Copy CRC DD376F04
Cannot be verified as accurate (confidence 2) [F5F66982], AccurateRip returned [95D2EB28]
Copy OK
Track 7
Filename E:\!Rips\FUNK @ SOUL\Boz Scaggs - Down Two Then Left (CK 34729)\07 – Then She Walked Away.wav
Pre-gap length 0:00:01.40
Peak level 90.2 %
Track quality 99.9 %
Test CRC 0FBABC41
Copy CRC 0FBABC41
Cannot be verified as accurate (confidence 2) [5AD21F04], AccurateRip returned [114CB139]
Copy OK
Track 8
Filename E:\!Rips\FUNK @ SOUL\Boz Scaggs - Down Two Then Left (CK 34729)\08 – Gimme the Goods.wav
Pre-gap length 0:00:01.66
Peak level 90.0 %
Track quality 100.0 %
Test CRC DBA8220F
Copy CRC DBA8220F
Cannot be verified as accurate (confidence 2) [4A54755D], AccurateRip returned [16BBA279]
Copy OK
Track 9
Filename E:\!Rips\FUNK @ SOUL\Boz Scaggs - Down Two Then Left (CK 34729)\09 – 1993.wav
Pre-gap length 0:00:01.44
Peak level 97.7 %
Track quality 100.0 %
Test CRC 870D3401
Copy CRC 870D3401
Cannot be verified as accurate (confidence 2) [08546C48], AccurateRip returned [DC1A253F]
Copy OK
Track 10
Filename E:\!Rips\FUNK @ SOUL\Boz Scaggs - Down Two Then Left (CK 34729)\10 – Tomorrow Never Came.wav
Pre-gap length 0:00:00.53
Peak level 55.7 %
Track quality 100.0 %
Test CRC 2950F410
Copy CRC 2950F410
Cannot be verified as accurate (confidence 2) [B568EE3F], AccurateRip returned [2E3763C1]
Copy OK
No tracks could be verified as accurate
You may have a different pressing from the one(s) in the database
No errors occurred
End of status report
 
CUE
REM GENRE Rock
REM DATE 1977
REM DISCID 9009FC0A
REM COMMENT "ExactAudioCopy v0.99pb5"
PERFORMER "Boz Scaggs"
TITLE "Down Two Then Left"
FILE "01 – Still Falling For You.wav" WAVE
TRACK 01 AUDIO
TITLE "Still Falling For You"
PERFORMER "Boz Scaggs"
INDEX 01 00:00:00
TRACK 02 AUDIO
TITLE "Hard Times"
PERFORMER "Boz Scaggs"
INDEX 00 03:53:20
FILE "02 – Hard Times.wav" WAVE
INDEX 01 00:00:00
TRACK 03 AUDIO
TITLE "A Clue"
PERFORMER "Boz Scaggs"
INDEX 00 04:26:37
FILE "03 – A Clue.wav" WAVE
INDEX 01 00:00:00
TRACK 04 AUDIO
TITLE "Whatcha Gonna Tell Your Man"
PERFORMER "Boz Scaggs"
INDEX 00 03:53:07
FILE "04 – Whatcha Gonna Tell Your Man.wav" WAVE
INDEX 01 00:00:00
TRACK 05 AUDIO
TITLE "We're Waiting"
PERFORMER "Boz Scaggs"
INDEX 00 03:50:02
FILE "05 – We're Waiting.wav" WAVE
INDEX 01 00:00:00
TRACK 06 AUDIO
TITLE "Hollywood"
PERFORMER "Boz Scaggs"
INDEX 00 06:18:55
FILE "06 – Hollywood.wav" WAVE
INDEX 01 00:00:00
TRACK 07 AUDIO
TITLE "Then She Walked Away"
PERFORMER "Boz Scaggs"
INDEX 00 03:08:12
FILE "07 – Then She Walked Away.wav" WAVE
INDEX 01 00:00:00
TRACK 08 AUDIO
TITLE "Gimme the Goods"
PERFORMER "Boz Scaggs"
INDEX 00 04:04:30
FILE "08 – Gimme the Goods.wav" WAVE
INDEX 01 00:00:00
TRACK 09 AUDIO
TITLE "1993"
PERFORMER "Boz Scaggs"
INDEX 00 04:11:30
FILE "09 – 1993.wav" WAVE
INDEX 01 00:00:00
TRACK 10 AUDIO
TITLE "Tomorrow Never Came"
PERFORMER "Boz Scaggs"
INDEX 00 04:01:57
FILE "10 – Tomorrow Never Came.wav" WAVE
INDEX 01 00:00:00
 
1976 - Silk Degrees (CK 33920)
Продолжительность:41 min 21 sec
1. Boz Scaggs - What Can I Say (3:01)
2. Boz Scaggs - Georgia (3:56)
3. Boz Scaggs - Jump Street (5:13)
4. Boz Scaggs - What Do You Want the Girl to Do (3:53)
5. Boz Scaggs - Harbor Lights (5:58)
6. Boz Scaggs - Lowdown (5:17)
7. Boz Scaggs - It's Over (2:52)
8. Boz Scaggs - Love Me Tomorrow (3:17)
9. Boz Scaggs - Lido Shuffle (3:42)
10. Boz Scaggs - We're All Alone (4:12)
 
Log EAC
Exact Audio Copy V0.99 prebeta 5 from 4. May 2009
EAC extraction logfile from 8. March 2010, 20:55
Boz Scaggs / Silk Degrees
Used drive : ASUS DRW-1608P2 Adapter: 0 ID: 0
Read mode : Secure
Utilize accurate stream : Yes
Defeat audio cache : Yes
Make use of C2 pointers : No
Read offset correction : 48
Overread into Lead-In and Lead-Out : No
Fill up missing offset samples with silence : Yes
Delete leading and trailing silent blocks : No
Null samples used in CRC calculations : Yes
Used interface : Native Win32 interface for Win NT & 2000
Gap handling : Appended to previous track
Used output format : User Defined Encoder
Selected bitrate : 320 kBit/s
Quality : High
Add ID3 tag : No
Command line compressor : C:\Program Files\FLAC\flac.exe
Additional command line options : -5 -V -T "ARTIST=%a" -T "TITLE=%t" -T "ALBUM=%g" -T "DATE=%y" -T "TRACKNUMBER=%n" -T "GENRE=%m" -T "COMMENT=Ripped By andygrakoff aka yetiisyou" %s
TOC of the extracted CD
Track | Start | Length | Start sector | End sector
---------------------------------------------------------
1 | 0:00.00 | 3:01.50 | 0 | 13624
2 | 3:01.50 | 3:56.45 | 13625 | 31369
3 | 6:58.20 | 5:13.22 | 31370 | 54866
4 | 12:11.42 | 3:53.20 | 54867 | 72361
5 | 16:04.62 | 5:58.70 | 72362 | 99281
6 | 22:03.57 | 5:17.63 | 99282 | 123119
7 | 27:21.45 | 2:52.35 | 123120 | 136054
8 | 30:14.05 | 3:17.02 | 136055 | 150831
9 | 33:31.07 | 3:42.58 | 150832 | 167539
10 | 37:13.65 | 4:12.32 | 167540 | 186471
Track 1
Filename E:\!Rips\FUNK @ SOUL\Boz Scaggs - Silk Degrees (CK 33920)\01 – What Can I Say.wav
Pre-gap length 0:00:02.00
Peak level 92.6 %
Track quality 99.9 %
Test CRC 7889EE02
Copy CRC 7889EE02
Accurately ripped (confidence 10) [EAFD22DB]
Copy OK
Track 2
Filename E:\!Rips\FUNK @ SOUL\Boz Scaggs - Silk Degrees (CK 33920)\02 – Georgia.wav
Pre-gap length 0:00:00.64
Peak level 79.9 %
Track quality 100.0 %
Test CRC D787842B
Copy CRC D787842B
Accurately ripped (confidence 9) [6E183D63]
Copy OK
Track 3
Filename E:\!Rips\FUNK @ SOUL\Boz Scaggs - Silk Degrees (CK 33920)\03 – Jump Street.wav
Pre-gap length 0:00:01.40
Peak level 97.2 %
Track quality 100.0 %
Test CRC FFBAF1DD
Copy CRC FFBAF1DD
Accurately ripped (confidence 9) [9A69CA05]
Copy OK
Track 4
Filename E:\!Rips\FUNK @ SOUL\Boz Scaggs - Silk Degrees (CK 33920)\04 – What Do You Want the Girl to Do.wav
Pre-gap length 0:00:02.06
Peak level 100.0 %
Track quality 100.0 %
Test CRC A1FCF97C
Copy CRC A1FCF97C
Accurately ripped (confidence 10) [7E2C9A14]
Copy OK
Track 5
Filename E:\!Rips\FUNK @ SOUL\Boz Scaggs - Silk Degrees (CK 33920)\05 – Harbor Lights.wav
Pre-gap length 0:00:01.09
Peak level 71.5 %
Track quality 99.9 %
Test CRC 57074BD3
Copy CRC 57074BD3
Accurately ripped (confidence 10) [C281179E]
Copy OK
Track 6
Filename E:\!Rips\FUNK @ SOUL\Boz Scaggs - Silk Degrees (CK 33920)\06 – Lowdown.wav
Pre-gap length 0:00:02.49
Peak level 92.7 %
Track quality 100.0 %
Test CRC BE029A24
Copy CRC BE029A24
Accurately ripped (confidence 10) [5EEC4C55]
Copy OK
Track 7
Filename E:\!Rips\FUNK @ SOUL\Boz Scaggs - Silk Degrees (CK 33920)\07 – It's Over.wav
Pre-gap length 0:00:01.00
Peak level 88.8 %
Track quality 100.0 %
Test CRC 2132589C
Copy CRC 2132589C
Accurately ripped (confidence 10) [9A157918]
Copy OK
Track 8
Filename E:\!Rips\FUNK @ SOUL\Boz Scaggs - Silk Degrees (CK 33920)\08 – Love Me Tomorrow.wav
Pre-gap length 0:00:01.66
Peak level 76.5 %
Track quality 100.0 %
Test CRC 0BC0E389
Copy CRC 0BC0E389
Accurately ripped (confidence 10) [CACEFE86]
Copy OK
Track 9
Filename E:\!Rips\FUNK @ SOUL\Boz Scaggs - Silk Degrees (CK 33920)\09 – Lido Shuffle.wav
Pre-gap length 0:00:01.76
Peak level 100.0 %
Track quality 100.0 %
Test CRC D298DFE0
Copy CRC D298DFE0
Accurately ripped (confidence 9) [52D1992D]
Copy OK
Track 10
Filename E:\!Rips\FUNK @ SOUL\Boz Scaggs - Silk Degrees (CK 33920)\10 – We're All Alone.wav
Pre-gap length 0:00:01.30
Peak level 86.9 %
Track quality 100.0 %
Test CRC 77AEDE8E
Copy CRC 77AEDE8E
Accurately ripped (confidence 10) [9A5119B9]
Copy OK
All tracks accurately ripped
No errors occurred
End of status report
 
CUE
REM DATE 1976
REM DISCID 7109B60A
REM COMMENT "ExactAudioCopy v0.99pb5"
PERFORMER "Boz Scaggs"
TITLE "Silk Degrees"
FILE "01 – What Can I Say.wav" WAVE
TRACK 01 AUDIO
TITLE "What Can I Say"
PERFORMER "Boz Scaggs"
INDEX 01 00:00:00
TRACK 02 AUDIO
TITLE "Georgia"
PERFORMER "Boz Scaggs"
INDEX 00 03:01:02
FILE "02 – Georgia.wav" WAVE
INDEX 01 00:00:00
TRACK 03 AUDIO
TITLE "Jump Street"
PERFORMER "Boz Scaggs"
INDEX 00 03:55:15
FILE "03 – Jump Street.wav" WAVE
INDEX 01 00:00:00
TRACK 04 AUDIO
TITLE "What Do You Want the Girl to Do"
PERFORMER "Boz Scaggs"
INDEX 00 05:11:17
FILE "04 – What Do You Want the Girl to Do.wav" WAVE
INDEX 01 00:00:00
TRACK 05 AUDIO
TITLE "Harbor Lights"
PERFORMER "Boz Scaggs"
INDEX 00 03:52:13
FILE "05 – Harbor Lights.wav" WAVE
INDEX 01 00:00:00
TRACK 06 AUDIO
TITLE "Lowdown"
PERFORMER "Boz Scaggs"
INDEX 00 05:56:33
FILE "06 – Lowdown.wav" WAVE
INDEX 01 00:00:00
TRACK 07 AUDIO
TITLE "It's Over"
PERFORMER "Boz Scaggs"
INDEX 00 05:16:63
FILE "07 – It's Over.wav" WAVE
INDEX 01 00:00:00
TRACK 08 AUDIO
TITLE "Love Me Tomorrow"
PERFORMER "Boz Scaggs"
INDEX 00 02:50:60
FILE "08 – Love Me Tomorrow.wav" WAVE
INDEX 01 00:00:00
TRACK 09 AUDIO
TITLE "Lido Shuffle"
PERFORMER "Boz Scaggs"
INDEX 00 03:15:20
FILE "09 – Lido Shuffle.wav" WAVE
INDEX 01 00:00:00
TRACK 10 AUDIO
TITLE "We're All Alone"
PERFORMER "Boz Scaggs"
INDEX 00 03:41:35
FILE "10 – We're All Alone.wav" WAVE
INDEX 01 00:00:00
 
1988 - Other Roads (CBS 461121 2)

Продолжительность: 50:08
01. Boz Scaggs - What's Number One [3:58]
02. Boz Scaggs - Claudia [4:08]
03. Boz Scaggs - Heart of Mine [4:13]
04. Boz Scaggs - Right Out of My Head [5:26]
05. Boz Scaggs - I Don't Hear You [4:43]
06. Boz Scaggs - Mental Shakedown [4:10]
07. Boz Scaggs - Soul To Soul [5:03]
08. Boz Scaggs - Crimes of Passion [4:03]
09. Boz Scaggs - Funny [5:51]
10. Boz Scaggs - Cool Running [4:14]
11. Boz Scaggs - The Night of Van Gogh [4:20]
 
log and sheet
 
Log
EAC extraction logfile from 3. February 2008, 19:42 for CD
Boz Scaggs / Other Roads
Used drive : HL-DT-STDVDRAM GSA-E10L Adapter: 2 ID: 0
Read mode : Secure with NO C2, accurate stream, disable cache
Read offset correction : 667
Overread into Lead-In and Lead-Out : No
Used output format : C:\Programme\FLAC\flac.exe (User Defined Encoder)
128 kBit/s
Additional command line options : -8 -A tukey(0.25) -A gauss(0.1875) -b 4096 -V --sector-align -T "artist=%a" -T "title=%t" -T "album=%g" -T "date=%y" -T "tracknumber=%n" -T "genre=%m" -T "comment=EAC FLAC 1.2.0 -8" %s
Other options :
Fill up missing offset samples with silence : Yes
Delete leading and trailing silent blocks : No
Native Win32 interface for Win NT & 2000
Track 1
Filename U:\Audio\FLAC2\Boz Scaggs (1988) Other Roads {FLAC}\01 - What's Number One.wav
Pre-gap length 0:00:02.00
Peak level 68.7 %
Track quality 100.0 %
Test CRC 36AC53FE
Copy CRC 36AC53FE
Copy OK
Track 2
Filename U:\Audio\FLAC2\Boz Scaggs (1988) Other Roads {FLAC}\02 - Claudia.wav
Peak level 85.6 %
Track quality 100.0 %
Test CRC 39AD7EFC
Copy CRC 39AD7EFC
Copy OK
Track 3
Filename U:\Audio\FLAC2\Boz Scaggs (1988) Other Roads {FLAC}\03 - Heart of Mine.wav
Pre-gap length 0:00:00.57
Peak level 71.0 %
Track quality 100.0 %
Test CRC AE1A791A
Copy CRC AE1A791A
Copy OK
Track 4
Filename U:\Audio\FLAC2\Boz Scaggs (1988) Other Roads {FLAC}\04 - Right Out of My Head.wav
Pre-gap length 0:00:00.50
Peak level 63.1 %
Track quality 100.0 %
Test CRC 43B58A66
Copy CRC 43B58A66
Copy OK
Track 5
Filename U:\Audio\FLAC2\Boz Scaggs (1988) Other Roads {FLAC}\05 - I Don't Hear You.wav
Pre-gap length 0:00:01.33
Peak level 66.1 %
Track quality 100.0 %
Test CRC D58E50A0
Copy CRC D58E50A0
Copy OK
Track 6
Filename U:\Audio\FLAC2\Boz Scaggs (1988) Other Roads {FLAC}\06 - Mental Shakedown.wav
Pre-gap length 0:00:01.43
Peak level 95.0 %
Track quality 100.0 %
Test CRC 48E0EB55
Copy CRC 48E0EB55
Copy OK
Track 7
Filename U:\Audio\FLAC2\Boz Scaggs (1988) Other Roads {FLAC}\07 - Soul To Soul.wav
Pre-gap length 0:00:00.35
Peak level 100.0 %
Track quality 100.0 %
Test CRC C9FDFB29
Copy CRC C9FDFB29
Copy OK
Track 8
Filename U:\Audio\FLAC2\Boz Scaggs (1988) Other Roads {FLAC}\08 - Crimes of Passion.wav
Pre-gap length 0:00:01.40
Peak level 69.3 %
Track quality 100.0 %
Test CRC 915A228E
Copy CRC 915A228E
Copy OK
Track 9
Filename U:\Audio\FLAC2\Boz Scaggs (1988) Other Roads {FLAC}\09 - Funny.wav
Pre-gap length 0:00:02.30
Peak level 57.7 %
Track quality 100.0 %
Test CRC 354AB446
Copy CRC 354AB446
Copy OK
Track 10
Filename U:\Audio\FLAC2\Boz Scaggs (1988) Other Roads {FLAC}\10 - Cool Running.wav
Pre-gap length 0:00:02.68
Peak level 73.5 %
Track quality 100.0 %
Test CRC 1B973BD1
Copy CRC 1B973BD1
Copy OK
Track 11
Filename U:\Audio\FLAC2\Boz Scaggs (1988) Other Roads {FLAC}\11 - The Night of Van Gogh.wav
Pre-gap length 0:00:00.58
Peak level 62.4 %
Track quality 100.0 %
Test CRC 2E869583
Copy CRC 2E869583
Copy OK
No errors occured
End of status report
 
CUE
REM GENRE Rock
REM DATE 1988
REM DISCID 960BC00B
REM COMMENT "ExactAudioCopy v0.95b4"
PERFORMER "Boz Scaggs"
TITLE "Other Roads"
FILE "01 - What's Number One.wav" WAVE
TRACK 01 AUDIO
TITLE "What's Number One"
PERFORMER "Boz Scaggs"
INDEX 01 00:00:00
FILE "02 - Claudia.wav" WAVE
TRACK 02 AUDIO
TITLE "Claudia"
PERFORMER "Boz Scaggs"
INDEX 01 00:00:00
TRACK 03 AUDIO
TITLE "Heart of Mine"
PERFORMER "Boz Scaggs"
INDEX 00 04:06:65
FILE "03 - Heart of Mine.wav" WAVE
INDEX 01 00:00:00
TRACK 04 AUDIO
TITLE "Right Out of My Head"
PERFORMER "Boz Scaggs"
INDEX 00 04:12:03
FILE "04 - Right Out of My Head.wav" WAVE
INDEX 01 00:00:00
TRACK 05 AUDIO
TITLE "I Don't Hear You"
PERFORMER "Boz Scaggs"
INDEX 00 05:24:42
FILE "05 - I Don't Hear You.wav" WAVE
INDEX 01 00:00:00
TRACK 06 AUDIO
TITLE "Mental Shakedown"
PERFORMER "Boz Scaggs"
INDEX 00 04:41:07
FILE "06 - Mental Shakedown.wav" WAVE
INDEX 01 00:00:00
TRACK 07 AUDIO
TITLE "Soul To Soul"
PERFORMER "Boz Scaggs"
INDEX 00 04:09:57
FILE "07 - Soul To Soul.wav" WAVE
INDEX 01 00:00:00
TRACK 08 AUDIO
TITLE "Crimes of Passion"
PERFORMER "Boz Scaggs"
INDEX 00 05:01:00
FILE "08 - Crimes of Passion.wav" WAVE
INDEX 01 00:00:00
TRACK 09 AUDIO
TITLE "Funny"
PERFORMER "Boz Scaggs"
INDEX 00 04:00:40
FILE "09 - Funny.wav" WAVE
INDEX 01 00:00:00
TRACK 10 AUDIO
TITLE "Cool Running"
PERFORMER "Boz Scaggs"
INDEX 00 05:48:15
FILE "10 - Cool Running.wav" WAVE
INDEX 01 00:00:00
TRACK 11 AUDIO
TITLE "The Night of Van Gogh"
PERFORMER "Boz Scaggs"
INDEX 00 04:13:32
FILE "11 - The Night of Van Gogh.wav" WAVE
INDEX 01 00:00:00
 
1994 - Some Change (7243 8 39489 2 5)

Продолжительность: 49:53
01. Boz Scaggs - You Got My Letter [4:22]
02. Boz Scaggs - Some Change [6:11]
03. Boz Scaggs - I'll Be The One [5:30]
04. Boz Scaggs - Call Me [3:18]
05. Boz Scaggs - Fly Like A Bird [3:36]
06. Boz Scaggs - Sierra [5:21]
07. Boz Scaggs - Lost It [5:52]
08. Boz Scaggs - Time [4:19]
09. Boz Scaggs - Illusion [5:29]
10. Boz Scaggs - Follow That Man [5:54]
 
log and sheet
 
Log
EAC extraction logfile from 27. January 2008, 22:46 for CD
Boz Scaggs / Some Change
Used drive : _NEC DVD+RW ND-3100AD Adapter: 1 ID: 1
Read mode : Secure with NO C2, accurate stream, disable cache
Read offset correction : 48
Overread into Lead-In and Lead-Out : No
Used output format : C:\Program Files\Exact Audio Copy\flac.exe (User Defined Encoder)
192 kBit/s
Additional command line options : -8 -A tukey(0.25) -A gauss(0.1875) -b 4096 -V -T "artist=%a" -T "title=%t" -T "album=%g" -T "date=%y" -T "tracknumber=%n" -T "genre=%m" %s --sector-align
Other options :
Fill up missing offset samples with silence : Yes
Delete leading and trailing silent blocks : No
Installed external ASPI interface
Track 1
Filename F:\FLAC Files\Boz Scaggs - Some Change (1994) [FLAC]\01 - You Got My Letter.wav
Pre-gap length 0:00:02.00
Peak level 98.5 %
Track quality 99.9 %
Test CRC 86C71001
Copy CRC 86C71001
Copy OK
Track 2
Filename F:\FLAC Files\Boz Scaggs - Some Change (1994) [FLAC]\02 - Some Change.wav
Pre-gap length 0:00:02.00
Peak level 97.4 %
Track quality 100.0 %
Test CRC 697480A6
Copy CRC 697480A6
Copy OK
Track 3
Filename F:\FLAC Files\Boz Scaggs - Some Change (1994) [FLAC]\03 - I'll Be The One.wav
Pre-gap length 0:00:02.17
Peak level 98.3 %
Track quality 100.0 %
Test CRC 4E533DB8
Copy CRC 4E533DB8
Copy OK
Track 4
Filename F:\FLAC Files\Boz Scaggs - Some Change (1994) [FLAC]\04 - Call Me.wav
Pre-gap length 0:00:02.13
Peak level 94.7 %
Track quality 100.0 %
Test CRC 359BE834
Copy CRC 359BE834
Copy OK
Track 5
Filename F:\FLAC Files\Boz Scaggs - Some Change (1994) [FLAC]\05 - Fly Like A Bird.wav
Pre-gap length 0:00:01.44
Peak level 98.9 %
Track quality 100.0 %
Test CRC C80BDB53
Copy CRC C80BDB53
Copy OK
Track 6
Filename F:\FLAC Files\Boz Scaggs - Some Change (1994) [FLAC]\06 - Sierra.wav
Pre-gap length 0:00:00.69
Peak level 100.0 %
Track quality 100.0 %
Test CRC 93FEDFA6
Copy CRC 93FEDFA6
Copy OK
Track 7
Filename F:\FLAC Files\Boz Scaggs - Some Change (1994) [FLAC]\07 - Lost It.wav
Pre-gap length 0:00:01.10
Peak level 98.8 %
Track quality 100.0 %
Test CRC A7219CDB
Copy CRC A7219CDB
Copy OK
Track 8
Filename F:\FLAC Files\Boz Scaggs - Some Change (1994) [FLAC]\08 - Time.wav
Pre-gap length 0:00:03.00
Peak level 96.9 %
Track quality 100.0 %
Test CRC DC9480CB
Copy CRC DC9480CB
Copy OK
Track 9
Filename F:\FLAC Files\Boz Scaggs - Some Change (1994) [FLAC]\09 - Illusion.wav
Pre-gap length 0:00:03.22
Peak level 100.0 %
Track quality 100.0 %
Test CRC 6C3A6D3F
Copy CRC 6C3A6D3F
Copy OK
Track 10
Filename F:\FLAC Files\Boz Scaggs - Some Change (1994) [FLAC]\10 - Follow That Man.wav
Pre-gap length 0:00:03.20
Peak level 99.4 %
Track quality 99.9 %
Test CRC EBB2FA06
Copy CRC EBB2FA06
Copy OK
No errors occured
End of status report
 
CUE
REM GENRE Jazz
REM DATE 1994
REM DISCID 770BB10A
REM COMMENT "ExactAudioCopy v0.95b3"
PERFORMER "Boz Scaggs"
TITLE "Some Change"
FILE "01 - You Got My Letter.wav" WAVE
TRACK 01 AUDIO
TITLE "You Got My Letter"
PERFORMER "Boz Scaggs"
INDEX 01 00:00:00
TRACK 02 AUDIO
TITLE "Some Change"
PERFORMER "Boz Scaggs"
INDEX 00 04:20:25
FILE "02 - Some Change.wav" WAVE
INDEX 01 00:00:00
TRACK 03 AUDIO
TITLE "I'll Be The One"
PERFORMER "Boz Scaggs"
INDEX 00 06:09:07
FILE "03 - I'll Be The One.wav" WAVE
INDEX 01 00:00:00
TRACK 04 AUDIO
TITLE "Call Me"
PERFORMER "Boz Scaggs"
INDEX 00 05:27:47
FILE "04 - Call Me.wav" WAVE
INDEX 01 00:00:00
TRACK 05 AUDIO
TITLE "Fly Like A Bird"
PERFORMER "Boz Scaggs"
INDEX 00 03:16:65
FILE "05 - Fly Like A Bird.wav" WAVE
INDEX 01 00:00:00
TRACK 06 AUDIO
TITLE "Sierra"
PERFORMER "Boz Scaggs"
INDEX 00 03:35:20
FILE "06 - Sierra.wav" WAVE
INDEX 01 00:00:00
TRACK 07 AUDIO
TITLE "Lost It"
PERFORMER "Boz Scaggs"
INDEX 00 05:20:25
FILE "07 - Lost It.wav" WAVE
INDEX 01 00:00:00
TRACK 08 AUDIO
TITLE "Time"
PERFORMER "Boz Scaggs"
INDEX 00 05:49:37
FILE "08 - Time.wav" WAVE
INDEX 01 00:00:00
TRACK 09 AUDIO
TITLE "Illusion"
PERFORMER "Boz Scaggs"
INDEX 00 04:15:48
FILE "09 - Illusion.wav" WAVE
INDEX 01 00:00:00
TRACK 10 AUDIO
TITLE "Follow That Man"
PERFORMER "Boz Scaggs"
INDEX 00 05:25:30
FILE "10 - Follow That Man.wav" WAVE
INDEX 01 00:00:00
ж
Приватный:
Нет (DHT включён)
Размер:
1.40 Гб (1,499,873,687 байт) » файлов: 95
Участники:
0 раздают, 0 качают (0 участников всего)
Внешние участники:
9 раздают, 3 качают (12 участников всего) [ Обновить ]
Никого нет на раздаче - пишите личное сообщение M0p94ok
No seeders - write personal message to M0p94ok
02:58
13
Нет комментариев. Ваш будет первым!