Поиск

(Funk, Soul) Brainstorm - Journey To The Light (72435-42423-2-8) - 2002, FLAC (tracks+.cue), lossless

(Funk, Soul) Brainstorm - Journey To The Light (72435-42423-2-8) - 2002, FLAC (tracks+.cue), lossless
Треклист:
Brainstorm - Journey To The Light
Жанр: Funk, Soul
Год выпуска диска: 2002
Производитель диска: US
Аудио кодек: FLAC
Тип рипа: tracks+.cue
Битрейт аудио: lossless
Продолжительность: 00:38:49


1. BRAINSTORM - We`re On Our Way Home (Part 1) (3:44)
2. BRAINSTORM - Loving Just You (4:30)
3. BRAINSTORM - Every Time I See You, I Go Wild (7:02)
4. BRAINSTORM - Brand New Day (3:49)
5. BRAINSTORM - Journey To The Light (5:40)
6. BRAINSTORM - If You Ever Need To Cry (6:31)
7. BRAINSTORM - We`re On Our Way Home (Part 2) (2:50)
8. BRAINSTORM - Positive Thinking (4:43)
Собственноручный рип с оригинального диска от funky_cat!
 
Log EAC
Exact Audio Copy V0.99 prebeta 5 from 4. May 2009
EAC extraction logfile from 13. March 2010, 12:56
BRAINSTORM / Journey To The Light
Used drive : ASUS DRW-1608P2 Adapter: 0 ID: 0
Read mode : Secure
Utilize accurate stream : Yes
Defeat audio cache : Yes
Make use of C2 pointers : No
Read offset correction : 48
Overread into Lead-In and Lead-Out : No
Fill up missing offset samples with silence : Yes
Delete leading and trailing silent blocks : No
Null samples used in CRC calculations : Yes
Used interface : Native Win32 interface for Win NT & 2000
Gap handling : Appended to previous track
Used output format : User Defined Encoder
Selected bitrate : 1024 kBit/s
Quality : High
Add ID3 tag : No
Command line compressor : C:\Program Files\FLAC\flac.exe
Additional command line options : -5 -V -T "ARTIST=%a" -T "TITLE=%t" -T "ALBUM=%g" -T "DATE=%y" -T "TRACKNUMBER=%n" -T "GENRE=%m" -T "COMMENT=Ripped by andygrakoff aka yetiisyou" %s
TOC of the extracted CD
Track | Start | Length | Start sector | End sector
---------------------------------------------------------
1 | 0:00.00 | 3:44.52 | 0 | 16851
2 | 3:44.52 | 4:30.50 | 16852 | 37151
3 | 8:15.27 | 7:02.25 | 37152 | 68826
4 | 15:17.52 | 3:49.18 | 68827 | 86019
5 | 19:06.70 | 5:40.00 | 86020 | 111519
6 | 24:46.70 | 6:31.32 | 111520 | 140876
7 | 31:18.27 | 2:50.43 | 140877 | 153669
8 | 34:08.70 | 4:43.62 | 153670 | 174956
Track 1
Filename E:\!Rips\FUNK @ SOUL\BRAINSTORM - Journey To The Light (72435-42423-2-8)\01 – We`re On Our Way Home (Part 1).wav
Pre-gap length 0:00:02.00
Peak level 100.0 %
Track quality 100.0 %
Test CRC 0D0CBFE0
Copy CRC 0D0CBFE0
Accurately ripped (confidence 1) [05B3048E]
Copy OK
Track 2
Filename E:\!Rips\FUNK @ SOUL\BRAINSTORM - Journey To The Light (72435-42423-2-8)\02 – Loving Just You.wav
Peak level 88.0 %
Track quality 100.0 %
Test CRC 354800B3
Copy CRC 354800B3
Accurately ripped (confidence 1) [CA937165]
Copy OK
Track 3
Filename E:\!Rips\FUNK @ SOUL\BRAINSTORM - Journey To The Light (72435-42423-2-8)\03 – Every Time I See You, I Go Wild.wav
Peak level 100.0 %
Track quality 100.0 %
Test CRC CC062279
Copy CRC CC062279
Accurately ripped (confidence 1) [584F931B]
Copy OK
Track 4
Filename E:\!Rips\FUNK @ SOUL\BRAINSTORM - Journey To The Light (72435-42423-2-8)\04 – Brand New Day.wav
Peak level 100.0 %
Track quality 100.0 %
Test CRC 16D5B57A
Copy CRC 16D5B57A
Accurately ripped (confidence 1) [2FAC50C2]
Copy OK
Track 5
Filename E:\!Rips\FUNK @ SOUL\BRAINSTORM - Journey To The Light (72435-42423-2-8)\05 – Journey To The Light.wav
Peak level 94.5 %
Track quality 100.0 %
Test CRC 99ECE0C5
Copy CRC 99ECE0C5
Accurately ripped (confidence 1) [A8378632]
Copy OK
Track 6
Filename E:\!Rips\FUNK @ SOUL\BRAINSTORM - Journey To The Light (72435-42423-2-8)\06 – If You Ever Need To Cry.wav
Peak level 100.0 %
Track quality 100.0 %
Test CRC 3F34261A
Copy CRC 3F34261A
Accurately ripped (confidence 1) [A1F351CE]
Copy OK
Track 7
Filename E:\!Rips\FUNK @ SOUL\BRAINSTORM - Journey To The Light (72435-42423-2-8)\07 – We`re On Our Way Home (Part 2).wav
Peak level 90.8 %
Track quality 100.0 %
Test CRC F412DBB3
Copy CRC F412DBB3
Accurately ripped (confidence 1) [7F7B79F4]
Copy OK
Track 8
Filename E:\!Rips\FUNK @ SOUL\BRAINSTORM - Journey To The Light (72435-42423-2-8)\08 – Positive Thinking.wav
Peak level 95.1 %
Track quality 100.0 %
Test CRC 54BAA8F2
Copy CRC 54BAA8F2
Accurately ripped (confidence 1) [8AD46751]
Copy OK
All tracks accurately ripped
No errors occurred
End of status report
 
CUE
REM GENRE Funk
REM DATE 1978
REM DISCID 6E091C08
REM COMMENT "ExactAudioCopy v0.99pb5"
PERFORMER "BRAINSTORM"
TITLE "Journey To The Light"
FILE "01 – We`re On Our Way Home (Part 1).wav" WAVE
TRACK 01 AUDIO
TITLE "We`re On Our Way Home (Part 1)"
PERFORMER "BRAINSTORM"
INDEX 01 00:00:00
FILE "02 – Loving Just You.wav" WAVE
TRACK 02 AUDIO
TITLE "Loving Just You"
PERFORMER "BRAINSTORM"
INDEX 01 00:00:00
FILE "03 – Every Time I See You, I Go Wild.wav" WAVE
TRACK 03 AUDIO
TITLE "Every Time I See You, I Go Wild"
PERFORMER "BRAINSTORM"
INDEX 01 00:00:00
FILE "04 – Brand New Day.wav" WAVE
TRACK 04 AUDIO
TITLE "Brand New Day"
PERFORMER "BRAINSTORM"
INDEX 01 00:00:00
FILE "05 – Journey To The Light.wav" WAVE
TRACK 05 AUDIO
TITLE "Journey To The Light"
PERFORMER "BRAINSTORM"
INDEX 01 00:00:00
FILE "06 – If You Ever Need To Cry.wav" WAVE
TRACK 06 AUDIO
TITLE "If You Ever Need To Cry"
PERFORMER "BRAINSTORM"
INDEX 01 00:00:00
FILE "07 – We`re On Our Way Home (Part 2).wav" WAVE
TRACK 07 AUDIO
TITLE "We`re On Our Way Home (Part 2)"
PERFORMER "BRAINSTORM"
INDEX 01 00:00:00
FILE "08 – Positive Thinking.wav" WAVE
TRACK 08 AUDIO
TITLE "Positive Thinking"
PERFORMER "BRAINSTORM"
INDEX 01 00:00:00
Приватный:
Нет (DHT включён)
Размер:
261.79 Мб (274,503,301 байт) » файлов: 18
Участники:
0 раздают, 0 качают (0 участников всего)
Внешние участники:
5 раздают, 2 качают (7 участников всего) [ Обновить ]
Никого нет на раздаче - пишите ЛС M0p94ok
No seeders - write PM to M0p94ok
02:59
22
Нет комментариев. Ваш будет первым!