Поиск

(Funk, Soul) Cameo - 8 releases - 1984-2003, FLAC (tracks+.cue), lossless

(Funk, Soul) Cameo - 8 releases - 1984-2003, FLAC (tracks+.cue), lossless
Треклист:
Cameo
Жанр: Funk, Soul
Год выпуска диска: 1984-2003
Аудио кодек: FLAC
Тип рипа: tracks+.cue
Битрейт аудио: lossless
Продолжительность: 05:52:36
Собственноручные рипы с оригинальных дисков от funky_cat!
Cameo - Ugly Ego (1978) from what.cd
19 10 2014 добавлены рипы:
1984 - She's Strange (Casablanca Records - 814 984-2),
1986 - Word Up! (1980) (Mercury - 830 265-2),
1996 - Nasty (Essential - ESMCD 445),
1993 - The Best of Cameo (Chronicles - 514 929-2)


 
1984 - She's Strange (Casablanca Records - 814 984-2)

Продолжительность: 34:44
01. Cameo - She's Strange [07:11]
02. Cameo - Love You Anyway [04:48]
03. Cameo - Talkin' Out The Side Of Your Neck [04:05]
04. Cameo - Tribute To Bob Marley [05:01]
05. Cameo - Groove With You [04:24]
06. Cameo - Hangin' Downtown [05:07]
07. Cameo - Lé Ve Toi [04:04]
 
log and sheet
 
Log
Exact Audio Copy V0.99 prebeta 4 from 23. January 2008
EAC extraction logfile from 4. May 2009, 7:35
Cameo / She's Strange
Used drive : PHILIPS DVDR1628P1 Adapter: 4 ID: 0
Read mode : Secure
Utilize accurate stream : Yes
Defeat audio cache : Yes
Make use of C2 pointers : No
Read offset correction : 618
Overread into Lead-In and Lead-Out : No
Fill up missing offset samples with silence : Yes
Delete leading and trailing silent blocks : No
Null samples used in CRC calculations : Yes
Used interface : Native Win32 interface for Win NT & 2000
Gap handling : Appended to previous track
Used output format : User Defined Encoder
Selected bitrate : 768 kBit/s
Quality : High
Add ID3 tag : No
Command line compressor : C:\Program Files\Exact Audio Copy\FLAC\FLAC.EXE
Additional command line options : -6 -V -T "ARTIST=%a" -T "TITLE=%t" -T "ALBUM=%g" -T "DATE=%y" -T "TRACKNUMBER=%n" -T "GENRE=%m" -T "COMMENT=%e" %s -o %d
TOC of the extracted CD
Track | Start | Length | Start sector | End sector
---------------------------------------------------------
1 | 0:00.32 | 7:11.50 | 32 | 32406
2 | 7:12.07 | 4:48.58 | 32407 | 54064
3 | 12:00.65 | 4:05.40 | 54065 | 72479
4 | 16:06.30 | 5:01.52 | 72480 | 95106
5 | 21:08.07 | 4:24.38 | 95107 | 114944
6 | 25:32.45 | 5:07.72 | 114945 | 138041
7 | 30:40.42 | 4:04.30 | 138042 | 156371
Track 1
Filename C:\Stop Addis In The Name Of My HDD\01 - She's Strange.wav
Pre-gap length 0:00:02.42
Peak level 89.1 %
Track quality 99.9 %
Test CRC 6252E5D0
Copy CRC 6252E5D0
Accurately ripped (confidence 1) [ED7950C6]
Copy OK
Track 2
Filename C:\Stop Addis In The Name Of My HDD\02 - Love You Anyway.wav
Pre-gap length 0:00:01.22
Peak level 91.2 %
Track quality 100.0 %
Test CRC D5EA6192
Copy CRC D5EA6192
Accurately ripped (confidence 1) [FCFDCD0A]
Copy OK
Track 3
Filename C:\Stop Addis In The Name Of My HDD\03 - Talkin' Out The Side Of Your Neck.wav
Pre-gap length 0:00:01.13
Peak level 89.1 %
Track quality 100.0 %
Test CRC 7BEA0EA8
Copy CRC 7BEA0EA8
Accurately ripped (confidence 1) [5383916B]
Copy OK
Track 4
Filename C:\Stop Addis In The Name Of My HDD\04 - Tribute To Bob Marley.wav
Pre-gap length 0:00:01.24
Peak level 87.0 %
Track quality 100.0 %
Test CRC 77370251
Copy CRC 77370251
Accurately ripped (confidence 1) [FE037AC6]
Copy OK
Track 5
Filename C:\Stop Addis In The Name Of My HDD\05 - Groove With You.wav
Pre-gap length 0:00:01.22
Peak level 87.9 %
Track quality 100.0 %
Test CRC E3F050BB
Copy CRC E3F050BB
Accurately ripped (confidence 1) [DF0F33CF]
Copy OK
Track 6
Filename C:\Stop Addis In The Name Of My HDD\06 - Hangin' Downtown.wav
Pre-gap length 0:00:01.17
Peak level 89.1 %
Track quality 100.0 %
Test CRC E597CFA0
Copy CRC E597CFA0
Accurately ripped (confidence 1) [2D9F26A8]
Copy OK
Track 7
Filename C:\Stop Addis In The Name Of My HDD\07 - Le Ve Toi.wav
Pre-gap length 0:00:01.16
Peak level 87.0 %
Track quality 100.0 %
Test CRC 75B1C42D
Copy CRC 75B1C42D
Accurately ripped (confidence 1) [5172D458]
Copy OK
All tracks accurately ripped
No errors occurred
End of status report
 
CUE
REM GENRE Funk
REM DATE 1984
REM DISCID 55082407
REM COMMENT "ExactAudioCopy v0.99pb4"
PERFORMER "Cameo"
TITLE "She's Strange"
FILE "01 - She's Strange.wav" WAVE
TRACK 01 AUDIO
TITLE "She's Strange"
PERFORMER "Cameo"
FLAGS DCP
PREGAP 00:00:32
INDEX 01 00:00:00
TRACK 02 AUDIO
TITLE "Love You Anyway"
PERFORMER "Cameo"
FLAGS DCP
INDEX 00 07:10:33
FILE "02 - Love You Anyway.wav" WAVE
INDEX 01 00:00:00
TRACK 03 AUDIO
TITLE "Talkin' Out The Side Of Your Neck"
PERFORMER "Cameo"
FLAGS DCP
INDEX 00 04:47:48
FILE "03 - Talkin' Out The Side Of Your Neck.wav" WAVE
INDEX 01 00:00:00
TRACK 04 AUDIO
TITLE "Tribute To Bob Marley"
PERFORMER "Cameo"
FLAGS DCP
INDEX 00 04:04:22
FILE "04 - Tribute To Bob Marley.wav" WAVE
INDEX 01 00:00:00
TRACK 05 AUDIO
TITLE "Groove With You"
PERFORMER "Cameo"
FLAGS DCP
INDEX 00 05:00:35
FILE "05 - Groove With You.wav" WAVE
INDEX 01 00:00:00
TRACK 06 AUDIO
TITLE "Hangin' Downtown"
PERFORMER "Cameo"
FLAGS DCP
INDEX 00 04:23:25
FILE "06 - Hangin' Downtown.wav" WAVE
INDEX 01 00:00:00
TRACK 07 AUDIO
TITLE "Le Ve Toi"
PERFORMER "Cameo"
FLAGS DCP
INDEX 00 05:06:60
FILE "07 - Le Ve Toi.wav" WAVE
INDEX 01 00:00:00
 
1986 - Word Up! (1980) (Mercury - 830 265-2)

Продолжительность: 35:20
01. Cameo - Word Up [04:21]
02. Cameo - Candy [05:39]
03. Cameo - Back And Forth [06:33]
04. Cameo - Don't Be Lonely [05:19]
05. Cameo - She's Mine [04:37]
06. Cameo - Fast, Fierce & Funny [04:09]
07. Cameo - You Can Have The World [04:38]
 
log and sheet
 
Log
Exact Audio Copy V0.99 prebeta 3 from 28. July 2007
EAC extraction logfile from 5. July 2009, 10:09
Cameo / Word Up!
Used drive : TSSTcorpCDDVDW SN-S083B Adapter: 2 ID: 0
Read mode : Secure
Utilize accurate stream : Yes
Defeat audio cache : Yes
Make use of C2 pointers : No
Read offset correction : 6
Overread into Lead-In and Lead-Out : No
Fill up missing offset samples with silence : Yes
Delete leading and trailing silent blocks : No
Null samples used in CRC calculations : Yes
Used interface : Installed external ASPI interface
Gap handling : Appended to previous track
Used output format : User Defined Encoder
Selected bitrate : 768 kBit/s
Quality : High
Add ID3 tag : No
Command line compressor : C:\Program Files\Exact Audio Copy\FLAC\FLAC.EXE
Additional command line options : -8 -V -T "ARTIST=%a" -T "TITLE=%t" -T "ALBUM=%g" -T "DATE=%y" -T "TRACKNUMBER=%n" -T "TOTALTRACKS=%x" -T "GENRE=%m" -T "ALBUMARTIST=%v" -T "ALBUM ARTIST=%v" -T "COMMENT=EAC V0.99 prebeta 4, Secure Mode, Test & Copy, Accurat
TOC of the extracted CD
Track | Start | Length | Start sector | End sector
---------------------------------------------------------
1 | 0:00.32 | 4:21.00 | 32 | 19606
2 | 4:21.32 | 5:39.70 | 19607 | 45101
3 | 10:01.27 | 6:33.43 | 45102 | 74619
4 | 16:34.70 | 5:19.70 | 74620 | 98614
5 | 21:54.65 | 4:37.50 | 98615 | 119439
6 | 26:32.40 | 4:09.17 | 119440 | 138131
7 | 30:41.57 | 4:38.68 | 138132 | 159049
Track 1
Filename C:\Addis is killing my HDD\01 - Word Up.wav
Pre-gap length 0:00:02.42
Peak level 87.0 %
Track quality 99.9 %
Test CRC 95F3D0A2
Copy CRC 95F3D0A2
Cannot be verified as accurate (confidence 4) [FD36F495], AccurateRip returned [46BDCB53]
Copy OK
Track 2
Filename C:\Addis is killing my HDD\02 - Candy.wav
Pre-gap length 0:00:01.00
Peak level 87.0 %
Track quality 100.0 %
Test CRC 3825FBCF
Copy CRC 3825FBCF
Cannot be verified as accurate (confidence 4) [3B2A3682], AccurateRip returned [C6D5A321]
Copy OK
Track 3
Filename C:\Addis is killing my HDD\03 - Back And Forth.wav
Peak level 87.0 %
Track quality 100.0 %
Test CRC 3089B0D2
Copy CRC 3089B0D2
Cannot be verified as accurate (confidence 4) [A2F9A232], AccurateRip returned [8BE0500F]
Copy OK
Track 4
Filename C:\Addis is killing my HDD\04 - Don't Be Lonely.wav
Pre-gap length 0:00:01.30
Peak level 87.0 %
Track quality 100.0 %
Test CRC EDA07E90
Copy CRC EDA07E90
Cannot be verified as accurate (confidence 4) [4F5BDEDA], AccurateRip returned [180AC355]
Copy OK
Track 5
Filename C:\Addis is killing my HDD\05 - She's Mine.wav
Pre-gap length 0:00:03.20
Peak level 87.0 %
Track quality 100.0 %
Test CRC 79B9668C
Copy CRC 79B9668C
Cannot be verified as accurate (confidence 4) [212700B5], AccurateRip returned [4008AA55]
Copy OK
Track 6
Filename C:\Addis is killing my HDD\06 - Fast, Fierce & Funny.wav
Pre-gap length 0:00:00.46
Peak level 79.7 %
Track quality 100.0 %
Test CRC 7DAF0A46
Copy CRC 7DAF0A46
Cannot be verified as accurate (confidence 4) [23004DE6], AccurateRip returned [F370C8CF]
Copy OK
Track 7
Filename C:\Addis is killing my HDD\07 - You Can Have The World.wav
Pre-gap length 0:00:02.49
Peak level 89.1 %
Track quality 100.0 %
Test CRC 3CF8ADEF
Copy CRC 3CF8ADEF
Cannot be verified as accurate (confidence 4) [D8B16DE7], AccurateRip returned [CF740AD7]
Copy OK
No tracks could be verified as accurate
You may have a different pressing from the one(s) in the database
No errors occurred
End of status report
 
CUE
REM GENRE Funk
REM DATE 1986
REM DISCID 5C084807
REM COMMENT "ExactAudioCopy v0.99pb3"
PERFORMER "Cameo"
TITLE "Word Up!"
FILE "01 - Word Up.wav" WAVE
TRACK 01 AUDIO
TITLE "Word Up"
PERFORMER "Cameo"
PREGAP 00:00:32
INDEX 01 00:00:00
TRACK 02 AUDIO
TITLE "Candy"
PERFORMER "Cameo"
INDEX 00 04:20:00
FILE "02 - Candy.wav" WAVE
INDEX 01 00:00:00
FILE "03 - Back And Forth.wav" WAVE
TRACK 03 AUDIO
TITLE "Back And Forth"
PERFORMER "Cameo"
INDEX 01 00:00:00
TRACK 04 AUDIO
TITLE "Don't Be Lonely"
PERFORMER "Cameo"
INDEX 00 06:32:20
FILE "04 - Don't Be Lonely.wav" WAVE
INDEX 01 00:00:00
TRACK 05 AUDIO
TITLE "She's Mine"
PERFORMER "Cameo"
INDEX 00 05:16:55
FILE "05 - She's Mine.wav" WAVE
INDEX 01 00:00:00
TRACK 06 AUDIO
TITLE "Fast, Fierce & Funny"
PERFORMER "Cameo"
INDEX 00 04:37:15
FILE "06 - Fast, Fierce & Funny.wav" WAVE
INDEX 01 00:00:00
TRACK 07 AUDIO
TITLE "You Can Have The World"
PERFORMER "Cameo"
INDEX 00 04:06:55
FILE "07 - You Can Have The World.wav" WAVE
INDEX 01 00:00:00
 
1987 - Cameosis (1980) (Mercury - 830 323-2)
Продолжительность:34 min 29 sec
1. Cameo - Cameosis (4:11)
2. Cameo - Shake Your Pants (6:24)
3. Cameo - Please You (4:19)
4. Cameo - We're Goin' Out Tonight (4:44)
5. Cameo - I Care For You (4:37)
6. Cameo - On The One (5:00)
7. Cameo - Why Have I Lost You (5:14)
 
Log EAC
Exact Audio Copy V0.99 prebeta 5 from 4. May 2009
EAC extraction logfile from 8. March 2010, 17:40
Cameo / Cameosis
Used drive : ASUS DRW-1608P2 Adapter: 0 ID: 0
Read mode : Secure
Utilize accurate stream : Yes
Defeat audio cache : Yes
Make use of C2 pointers : No
Read offset correction : 48
Overread into Lead-In and Lead-Out : No
Fill up missing offset samples with silence : Yes
Delete leading and trailing silent blocks : No
Null samples used in CRC calculations : Yes
Used interface : Native Win32 interface for Win NT & 2000
Gap handling : Appended to previous track
Used output format : User Defined Encoder
Selected bitrate : 320 kBit/s
Quality : High
Add ID3 tag : No
Command line compressor : C:\Program Files\FLAC\flac.exe
Additional command line options : -5 -V -T "ARTIST=%a" -T "TITLE=%t" -T "ALBUM=%g" -T "DATE=%y" -T "TRACKNUMBER=%n" -T "GENRE=%m" -T "COMMENT=Ripped By andygrakoff aka yetiisyou" %s
TOC of the extracted CD
Track | Start | Length | Start sector | End sector
---------------------------------------------------------
1 | 0:00.32 | 4:11.05 | 32 | 18861
2 | 4:11.37 | 6:24.23 | 18862 | 47684
3 | 10:35.60 | 4:19.30 | 47685 | 67139
4 | 14:55.15 | 4:44.40 | 67140 | 88479
5 | 19:39.55 | 4:37.32 | 88480 | 109286
6 | 24:17.12 | 5:00.05 | 109287 | 131791
7 | 29:17.17 | 5:14.35 | 131792 | 155376
Track 1
Filename E:\!Rips\FUNK @ SOUL\Cameo - Cameosis (830 323-2)\01 – Cameosis.wav
Pre-gap length 0:00:02.42
Peak level 97.7 %
Track quality 100.0 %
Test CRC 0D0BA90C
Copy CRC 0D0BA90C
Cannot be verified as accurate (confidence 2) [B3B72AA8], AccurateRip returned [9F2AF47A]
Copy OK
Track 2
Filename E:\!Rips\FUNK @ SOUL\Cameo - Cameosis (830 323-2)\02 – Shake Your Pants.wav
Pre-gap length 0:00:01.22
Peak level 100.0 %
Track quality 100.0 %
Test CRC 43720435
Copy CRC 43720435
Cannot be verified as accurate (confidence 2) [292D1EB3], AccurateRip returned [496F8E39]
Copy OK
Track 3
Filename E:\!Rips\FUNK @ SOUL\Cameo - Cameosis (830 323-2)\03 – Please You.wav
Pre-gap length 0:00:02.26
Peak level 100.0 %
Track quality 100.0 %
Test CRC 804F2A07
Copy CRC 804F2A07
Cannot be verified as accurate (confidence 2) [ED14FEE5], AccurateRip returned [8AD35DC4]
Copy OK
Track 4
Filename E:\!Rips\FUNK @ SOUL\Cameo - Cameosis (830 323-2)\04 – We're Goin' Out Tonight.wav
Pre-gap length 0:00:03.33
Peak level 100.0 %
Track quality 100.0 %
Test CRC C273DA15
Copy CRC C273DA15
Cannot be verified as accurate (confidence 2) [DD3710D7], AccurateRip returned [94997E1B]
Copy OK
Track 5
Filename E:\!Rips\FUNK @ SOUL\Cameo - Cameosis (830 323-2)\05 – I Care For You.wav
Pre-gap length 0:00:03.84
Peak level 100.0 %
Track quality 100.0 %
Test CRC D55CCD56
Copy CRC D55CCD56
Cannot be verified as accurate (confidence 2) [C4123D36], AccurateRip returned [67B8FD1E]
Copy OK
Track 6
Filename E:\!Rips\FUNK @ SOUL\Cameo - Cameosis (830 323-2)\06 – On The One.wav
Pre-gap length 0:00:02.69
Peak level 100.0 %
Track quality 100.0 %
Test CRC 2F5112FC
Copy CRC 2F5112FC
Cannot be verified as accurate (confidence 2) [1CF0F35A], AccurateRip returned [B06B09AA]
Copy OK
Track 7
Filename E:\!Rips\FUNK @ SOUL\Cameo - Cameosis (830 323-2)\07 – Why Have I Lost You.wav
Pre-gap length 0:00:00.80
Peak level 97.3 %
Track quality 99.9 %
Test CRC 8842FC3F
Copy CRC 8842FC3F
Cannot be verified as accurate (confidence 2) [1CA278B1], AccurateRip returned [EDBD6C6E]
Copy OK
No tracks could be verified as accurate
You may have a different pressing from the one(s) in the database
No errors occurred
End of status report
 
CUE
REM GENRE "R&B Funk"
REM DATE 1980
REM DISCID 68081707
REM COMMENT "ExactAudioCopy v0.99pb5"
PERFORMER "Cameo"
TITLE "Cameosis"
FILE "01 – Cameosis.wav" WAVE
TRACK 01 AUDIO
TITLE "Cameosis"
PERFORMER "Cameo"
PREGAP 00:00:32
INDEX 01 00:00:00
TRACK 02 AUDIO
TITLE "Shake Your Pants"
PERFORMER "Cameo"
INDEX 00 04:09:63
FILE "02 – Shake Your Pants.wav" WAVE
INDEX 01 00:00:00
TRACK 03 AUDIO
TITLE "Please You"
PERFORMER "Cameo"
INDEX 00 06:22:03
FILE "03 – Please You.wav" WAVE
INDEX 01 00:00:00
TRACK 04 AUDIO
TITLE "We're Goin' Out Tonight"
PERFORMER "Cameo"
INDEX 00 04:16:05
FILE "04 – We're Goin' Out Tonight.wav" WAVE
INDEX 01 00:00:00
TRACK 05 AUDIO
TITLE "I Care For You"
PERFORMER "Cameo"
INDEX 00 04:40:52
FILE "05 – I Care For You.wav" WAVE
INDEX 01 00:00:00
TRACK 06 AUDIO
TITLE "On The One"
PERFORMER "Cameo"
INDEX 00 04:34:55
FILE "06 – On The One.wav" WAVE
INDEX 01 00:00:00
TRACK 07 AUDIO
TITLE "Why Have I Lost You"
PERFORMER "Cameo"
INDEX 00 04:59:20
FILE "07 – Why Have I Lost You.wav" WAVE
INDEX 01 00:00:00
 
1992 - Cardiac Arrest (1977) (Mercury - 314 518 006-2)
Продолжительность: 35 min 57 sec
1. Cameo - Stilll Feels Good (4:20)
2. Cameo - Post Mortem (4:23)
3. Cameo - Smile (3:54)
4. Cameo - Funk, Funk (4:50)
5. Cameo - Find My Way (3:38)
6. Cameo - Rigor Mortis (5:25)
7. Cameo - Good Times (5:03)
8. Cameo - Stay By My Side (4:24)
 
Log EAC
Exact Audio Copy V0.99 prebeta 5 from 4. May 2009
EAC extraction logfile from 15. March 2010, 0:54
Cameo / Cardiac Arrest
Used drive : ASUS DRW-1608P2 Adapter: 0 ID: 0
Read mode : Secure
Utilize accurate stream : Yes
Defeat audio cache : Yes
Make use of C2 pointers : No
Read offset correction : 48
Overread into Lead-In and Lead-Out : No
Fill up missing offset samples with silence : Yes
Delete leading and trailing silent blocks : No
Null samples used in CRC calculations : Yes
Used interface : Native Win32 interface for Win NT & 2000
Gap handling : Appended to previous track
Used output format : User Defined Encoder
Selected bitrate : 1024 kBit/s
Quality : High
Add ID3 tag : No
Command line compressor : C:\Program Files\FLAC\flac.exe
Additional command line options : -5 -V -T "ARTIST=%a" -T "TITLE=%t" -T "ALBUM=%g" -T "DATE=%y" -T "TRACKNUMBER=%n" -T "GENRE=%m" -T "COMMENT=Ripped by andygrakoff aka yetiisyou" %s
TOC of the extracted CD
Track | Start | Length | Start sector | End sector
---------------------------------------------------------
1 | 0:00.32 | 4:20.50 | 32 | 19581
2 | 4:21.07 | 4:23.10 | 19582 | 39316
3 | 8:44.17 | 3:54.68 | 39317 | 56934
4 | 12:39.10 | 4:50.65 | 56935 | 78749
5 | 17:30.00 | 3:38.45 | 78750 | 95144
6 | 21:08.45 | 5:25.00 | 95145 | 119519
7 | 26:33.45 | 5:03.37 | 119520 | 142281
8 | 31:37.07 | 4:24.73 | 142282 | 162154
Track 1
Filename E:\!Rips\Cameo - Cardiac Arrest (314 518 006-2)\01 – Stilll Feels Good.wav
Pre-gap length 0:00:02.42
Peak level 93.3 %
Track quality 99.9 %
Test CRC 5AB1A57F
Copy CRC 5AB1A57F
Accurately ripped (confidence 1) [B7D5DB86]
Copy OK
Track 2
Filename E:\!Rips\Cameo - Cardiac Arrest (314 518 006-2)\02 – Post Mortem.wav
Pre-gap length 0:00:03.33
Peak level 93.3 %
Track quality 100.0 %
Test CRC D3A7B8B4
Copy CRC D3A7B8B4
Accurately ripped (confidence 1) [FA31FEEA]
Copy OK
Track 3
Filename E:\!Rips\Cameo - Cardiac Arrest (314 518 006-2)\03 – Smile.wav
Pre-gap length 0:00:03.82
Peak level 95.2 %
Track quality 100.0 %
Test CRC 684C2014
Copy CRC 684C2014
Accurately ripped (confidence 1) [71F5E0E1]
Copy OK
Track 4
Filename E:\!Rips\Cameo - Cardiac Arrest (314 518 006-2)\04 – Funk, Funk.wav
Pre-gap length 0:00:03.33
Peak level 100.0 %
Track quality 99.9 %
Test CRC 8F867241
Copy CRC 8F867241
Accurately ripped (confidence 1) [BB58E71E]
Copy OK
Track 5
Filename E:\!Rips\Cameo - Cardiac Arrest (314 518 006-2)\05 – Find My Way.wav
Pre-gap length 0:00:03.33
Peak level 93.4 %
Track quality 100.0 %
Test CRC 2A2BB190
Copy CRC 2A2BB190
Accurately ripped (confidence 1) [BCAB14A0]
Copy OK
Track 6
Filename E:\!Rips\Cameo - Cardiac Arrest (314 518 006-2)\06 – Rigor Mortis.wav
Pre-gap length 0:00:03.33
Peak level 98.4 %
Track quality 100.0 %
Test CRC 241A2E8D
Copy CRC 241A2E8D
Accurately ripped (confidence 1) [833CEF4C]
Copy OK
Track 7
Filename E:\!Rips\Cameo - Cardiac Arrest (314 518 006-2)\07 – Good Times.wav
Pre-gap length 0:00:03.33
Peak level 100.0 %
Track quality 99.9 %
Test CRC 08D326CE
Copy CRC 08D326CE
Accurately ripped (confidence 1) [160C347D]
Copy OK
Track 8
Filename E:\!Rips\Cameo - Cardiac Arrest (314 518 006-2)\08 – Stay By My Side.wav
Pre-gap length 0:00:03.82
Peak level 100.0 %
Track quality 100.0 %
Test CRC 44823F1F
Copy CRC 44823F1F
Accurately ripped (confidence 1) [32380195]
Copy OK
All tracks accurately ripped
No errors occurred
End of status report
 
CUE
REM GENRE Funk
REM DATE 1977
REM DISCID 69087208
REM COMMENT "ExactAudioCopy v0.99pb5"
PERFORMER "Cameo"
TITLE "Cardiac Arrest"
FILE "01 – Stilll Feels Good.wav" WAVE
TRACK 01 AUDIO
TITLE "Stilll Feels Good"
PERFORMER "Cameo"
PREGAP 00:00:32
INDEX 01 00:00:00
TRACK 02 AUDIO
TITLE "Post Mortem"
PERFORMER "Cameo"
INDEX 00 04:17:25
FILE "02 – Post Mortem.wav" WAVE
INDEX 01 00:00:00
TRACK 03 AUDIO
TITLE "Smile"
PERFORMER "Cameo"
INDEX 00 04:19:23
FILE "03 – Smile.wav" WAVE
INDEX 01 00:00:00
TRACK 04 AUDIO
TITLE "Funk, Funk"
PERFORMER "Cameo"
INDEX 00 03:51:43
FILE "04 – Funk, Funk.wav" WAVE
INDEX 01 00:00:00
TRACK 05 AUDIO
TITLE "Find My Way"
PERFORMER "Cameo"
INDEX 00 04:47:40
FILE "05 – Find My Way.wav" WAVE
INDEX 01 00:00:00
TRACK 06 AUDIO
TITLE "Rigor Mortis"
PERFORMER "Cameo"
INDEX 00 03:35:20
FILE "06 – Rigor Mortis.wav" WAVE
INDEX 01 00:00:00
TRACK 07 AUDIO
TITLE "Good Times"
PERFORMER "Cameo"
INDEX 00 05:21:50
FILE "07 – Good Times.wav" WAVE
INDEX 01 00:00:00
TRACK 08 AUDIO
TITLE "Stay By My Side"
PERFORMER "Cameo"
INDEX 00 04:59:50
FILE "08 – Stay By My Side.wav" WAVE
INDEX 01 00:00:00
 
1992 - Knights Of The Sound Table (1981) (Mercury - 314 512 595-2)
Продолжительность:33 min 46 sec
1. Cameo - Knights By Night (3:31)
2. Cameo - Freaky Dancin' (5:23)
3. Cameo - I Never Knew (4:40)
4. Cameo - Use It Or Lose It (4:11)
5. Cameo - The Sound Table (3:41)
6. Cameo - Don't Be So Cool (4:14)
7. Cameo - I'll Always Stay (3:54)
8. Cameo - I Like It (4:12)
 
Log EAC
Exact Audio Copy V0.99 prebeta 5 from 4. May 2009
EAC extraction logfile from 12. March 2010, 22:26
Cameo / Knights of the sound table
Used drive : Optiarc DVD RW AD-7170A Adapter: 0 ID: 1
Read mode : Secure
Utilize accurate stream : Yes
Defeat audio cache : Yes
Make use of C2 pointers : No
Read offset correction : 48
Overread into Lead-In and Lead-Out : No
Fill up missing offset samples with silence : Yes
Delete leading and trailing silent blocks : No
Null samples used in CRC calculations : Yes
Used interface : Native Win32 interface for Win NT & 2000
Gap handling : Appended to previous track
Used output format : User Defined Encoder
Selected bitrate : 1024 kBit/s
Quality : High
Add ID3 tag : No
Command line compressor : C:\Program Files\FLAC\flac.exe
Additional command line options : -5 -V -T "ARTIST=%a" -T "TITLE=%t" -T "ALBUM=%g" -T "DATE=%y" -T "TRACKNUMBER=%n" -T "GENRE=%m" -T "COMMENT=Ripped by andygrakoff aka yetiisyou" %s
TOC of the extracted CD
Track | Start | Length | Start sector | End sector
---------------------------------------------------------
1 | 0:00.32 | 3:31.00 | 32 | 15856
2 | 3:31.32 | 5:23.15 | 15857 | 40096
3 | 8:54.47 | 4:40.23 | 40097 | 61119
4 | 13:34.70 | 4:11.67 | 61120 | 80011
5 | 17:46.62 | 3:41.23 | 80012 | 96609
6 | 21:28.10 | 4:14.07 | 96610 | 115666
7 | 25:42.17 | 3:54.40 | 115667 | 133256
8 | 29:36.57 | 4:12.73 | 133257 | 152229
Track 1
Filename E:\!Rips\FUNK @ SOUL\Cameo - Knights Of The Sound Table (314 512 595-2)\01 – Knights By Night.wav
Pre-gap length 0:00:02.42
Peak level 100.0 %
Track quality 100.0 %
Test CRC C29167B8
Copy CRC C29167B8
Cannot be verified as accurate (confidence 1) [EC946329], AccurateRip returned [B4EF1A7F]
Copy OK
Track 2
Filename E:\!Rips\FUNK @ SOUL\Cameo - Knights Of The Sound Table (314 512 595-2)\02 – Freaky Dancin'.wav
Pre-gap length 0:00:00.33
Peak level 92.9 %
Track quality 100.0 %
Test CRC 5EA1CD25
Copy CRC 5EA1CD25
Cannot be verified as accurate (confidence 1) [9090AE56], AccurateRip returned [443338C6]
Copy OK
Track 3
Filename E:\!Rips\FUNK @ SOUL\Cameo - Knights Of The Sound Table (314 512 595-2)\03 – I Never Knew.wav
Pre-gap length 0:00:01.60
Peak level 98.7 %
Track quality 100.0 %
Test CRC 3FB70BEF
Copy CRC 3FB70BEF
Cannot be verified as accurate (confidence 1) [695D7223], AccurateRip returned [C1FF334B]
Copy OK
Track 4
Filename E:\!Rips\FUNK @ SOUL\Cameo - Knights Of The Sound Table (314 512 595-2)\04 – Use It Or Lose It.wav
Pre-gap length 0:00:03.84
Peak level 97.7 %
Track quality 100.0 %
Test CRC 492DC33D
Copy CRC 492DC33D
Cannot be verified as accurate (confidence 1) [FC628CDB], AccurateRip returned [7492F639]
Copy OK
Track 5
Filename E:\!Rips\FUNK @ SOUL\Cameo - Knights Of The Sound Table (314 512 595-2)\05 – The Sound Table.wav
Pre-gap length 0:00:03.82
Peak level 95.5 %
Track quality 100.0 %
Test CRC FF13489D
Copy CRC FF13489D
Cannot be verified as accurate (confidence 1) [4DE1E9A9], AccurateRip returned [AEAAB62B]
Copy OK
Track 6
Filename E:\!Rips\FUNK @ SOUL\Cameo - Knights Of The Sound Table (314 512 595-2)\06 – Don't Be So Cool.wav
Pre-gap length 0:00:01.13
Peak level 100.0 %
Track quality 100.0 %
Test CRC 486FE987
Copy CRC 486FE987
Cannot be verified as accurate (confidence 1) [B8FFE309], AccurateRip returned [7D03AAEB]
Copy OK
Track 7
Filename E:\!Rips\FUNK @ SOUL\Cameo - Knights Of The Sound Table (314 512 595-2)\07 – I'll Always Stay.wav
Pre-gap length 0:00:00.89
Peak level 100.0 %
Track quality 100.0 %
Test CRC C072BE44
Copy CRC C072BE44
Cannot be verified as accurate (confidence 1) [2085BC0B], AccurateRip returned [BE387789]
Copy OK
Track 8
Filename E:\!Rips\FUNK @ SOUL\Cameo - Knights Of The Sound Table (314 512 595-2)\08 – I Like It.wav
Pre-gap length 0:00:01.82
Peak level 100.0 %
Track quality 100.0 %
Test CRC D8F6F38A
Copy CRC D8F6F38A
Cannot be verified as accurate (confidence 1) [D13236B4], AccurateRip returned [5BA84204]
Copy OK
No tracks could be verified as accurate
You may have a different pressing from the one(s) in the database
No errors occurred
End of status report
 
CUE
REM GENRE Soul
REM DATE 1981
REM DISCID 6507ED08
REM COMMENT "ExactAudioCopy v0.99pb5"
PERFORMER "Cameo"
TITLE "Knights of the sound table"
FILE "01 – Knights By Night.wav" WAVE
TRACK 01 AUDIO
TITLE "Knights By Night"
PERFORMER "Cameo"
PREGAP 00:00:32
INDEX 01 00:00:00
TRACK 02 AUDIO
TITLE "Freaky Dancin'"
PERFORMER "Cameo"
INDEX 00 03:30:50
FILE "02 – Freaky Dancin'.wav" WAVE
INDEX 01 00:00:00
TRACK 03 AUDIO
TITLE "I Never Knew"
PERFORMER "Cameo"
INDEX 00 05:21:45
FILE "03 – I Never Knew.wav" WAVE
INDEX 01 00:00:00
TRACK 04 AUDIO
TITLE "Use It Or Lose It"
PERFORMER "Cameo"
INDEX 00 04:36:35
FILE "04 – Use It Or Lose It.wav" WAVE
INDEX 01 00:00:00
TRACK 05 AUDIO
TITLE "The Sound Table"
PERFORMER "Cameo"
INDEX 00 04:08:05
FILE "05 – The Sound Table.wav" WAVE
INDEX 01 00:00:00
TRACK 06 AUDIO
TITLE "Don't Be So Cool"
PERFORMER "Cameo"
INDEX 00 03:40:13
FILE "06 – Don't Be So Cool.wav" WAVE
INDEX 01 00:00:00
TRACK 07 AUDIO
TITLE "I'll Always Stay"
PERFORMER "Cameo"
INDEX 00 04:13:15
FILE "07 – I'll Always Stay.wav" WAVE
INDEX 01 00:00:00
TRACK 08 AUDIO
TITLE "I Like It"
PERFORMER "Cameo"
INDEX 00 03:52:53
FILE "08 – I Like It.wav" WAVE
INDEX 01 00:00:00
 
1993 - The Best of Cameo (Chronicles - 514 929-2)

Продолжительность: 01:17:23
01. Cameo - Word Up [04:23]
02. Cameo - Single Life [06:38]
03. Cameo - Candy [05:42]
04. Cameo - Shake Your Pants [06:24]
05. Cameo - Rigor Mortis [05:24]
06. Cameo - Attack Me With Your Love [04:33]
07. Cameo - Talkin' Out The Side Of Your Neck [04:08]
08. Cameo - Sparkle [04:54]
09. Cameo - Back And Forth [03:54]
10. Cameo - Flirt [04:09]
11. Cameo - She's Strange (12'' Rap Version) [06:54]
12. Cameo - I Just Want To Be [05:21]
13. Cameo - Skin I'm In [06:28]
14. Cameo - It's Over [04:17]
15. Cameo - She's Mine [04:07]
 
log and sheet
 
Log
Exact Audio Copy V0.99 prebeta 5 from 4. May 2009
EAC extraction logfile from 11. August 2010, 18:30
Cameo / The Best Of
Used drive : PIONEER DVD-RW DVR-112D Adapter: 0 ID: 1
Read mode : Secure
Utilize accurate stream : Yes
Defeat audio cache : Yes
Make use of C2 pointers : No
Read offset correction : 48
Overread into Lead-In and Lead-Out : No
Fill up missing offset samples with silence : Yes
Delete leading and trailing silent blocks : No
Null samples used in CRC calculations : Yes
Used interface : Installed external ASPI interface
Gap handling : Appended to previous track
Used output format : User Defined Encoder
Selected bitrate : 128 kBit/s
Quality : High
Add ID3 tag : No
Command line compressor : C:\Programmi\Exact Audio Copy\Flac\flac.exe
Additional command line options : -8 -V -T "ARTIST=%a" -T "TITLE=%t" -T "ALBUM=%g" -T "DATE=%y" -T "TRACKNUMBER=%n" -T "TOTALTRACKS=%x" -T "GENRE=%m" -T "ALBUMARTIST=%v" -T "ALBUM ARTIST=%v" -T "COMMENT=EAC Secure Mode, Test & Copy, AccurateRip, FLAC -8" %s
TOC of the extracted CD
Track | Start | Length | Start sector | End sector
---------------------------------------------------------
1 | 0:00.33 | 4:23.25 | 33 | 19782
2 | 4:23.58 | 6:38.00 | 19783 | 49632
3 | 11:01.58 | 5:42.47 | 49633 | 75329
4 | 16:44.30 | 6:24.00 | 75330 | 104129
5 | 23:08.30 | 5:24.58 | 104130 | 128487
6 | 28:33.13 | 4:33.27 | 128488 | 148989
7 | 33:06.40 | 4:08.43 | 148990 | 167632
8 | 37:15.08 | 4:54.17 | 167633 | 189699
9 | 42:09.25 | 3:54.68 | 189700 | 207317
10 | 46:04.18 | 4:09.72 | 207318 | 226064
11 | 50:14.15 | 6:54.73 | 226065 | 257187
12 | 57:09.13 | 5:21.40 | 257188 | 281302
13 | 62:30.53 | 6:28.00 | 281303 | 310402
14 | 68:58.53 | 4:17.57 | 310403 | 329734
15 | 73:16.35 | 4:07.05 | 329735 | 348264
Track 1
Filename C:\Cameo - The Best Of (1993) [FLAC]\01 - Word Up.wav
Pre-gap length 0:00:02.33
Peak level 70.7 %
Track quality 99.9 %
Test CRC 740A7C2B
Copy CRC 740A7C2B
Accurately ripped (confidence 21) [219B65A2]
Copy OK
Track 2
Filename C:\Cameo - The Best Of (1993) [FLAC]\02 - Single Life.wav
Pre-gap length 0:00:03.13
Peak level 100.0 %
Track quality 100.0 %
Test CRC 76128476
Copy CRC 76128476
Accurately ripped (confidence 20) [C2473C28]
Copy OK
Track 3
Filename C:\Cameo - The Best Of (1993) [FLAC]\03 - Candy.wav
Pre-gap length 0:00:02.48
Peak level 79.4 %
Track quality 100.0 %
Test CRC 78F047FE
Copy CRC 78F047FE
Accurately ripped (confidence 20) [68563AE2]
Copy OK
Track 4
Filename C:\Cameo - The Best Of (1993) [FLAC]\04 - Shake Your Pants.wav
Pre-gap length 0:00:02.55
Peak level 85.1 %
Track quality 100.0 %
Test CRC DC2454B8
Copy CRC DC2454B8
Accurately ripped (confidence 21) [930798DE]
Copy OK
Track 5
Filename C:\Cameo - The Best Of (1993) [FLAC]\05 - Rigor Mortis.wav
Pre-gap length 0:00:02.10
Peak level 98.4 %
Track quality 99.9 %
Test CRC 87B1E4EB
Copy CRC 87B1E4EB
Accurately ripped (confidence 20) [4EB4BB48]
Copy OK
Track 6
Filename C:\Cameo - The Best Of (1993) [FLAC]\06 - Attack Me With Your Love.wav
Pre-gap length 0:00:03.25
Peak level 95.5 %
Track quality 100.0 %
Test CRC B384D04B
Copy CRC B384D04B
Accurately ripped (confidence 21) [3D190E5F]
Copy OK
Track 7
Filename C:\Cameo - The Best Of (1993) [FLAC]\07 - Talkin' Out The Side Of Your Neck.wav
Pre-gap length 0:00:02.32
Peak level 91.0 %
Track quality 100.0 %
Test CRC 3D431372
Copy CRC 3D431372
Accurately ripped (confidence 20) [38524C27]
Copy OK
Track 8
Filename C:\Cameo - The Best Of (1993) [FLAC]\08 - Sparkle.wav
Pre-gap length 0:00:02.20
Peak level 96.8 %
Track quality 100.0 %
Test CRC A2473144
Copy CRC A2473144
Accurately ripped (confidence 21) [C8544898]
Copy OK
Track 9
Filename C:\Cameo - The Best Of (1993) [FLAC]\09 - Back And Forth.wav
Pre-gap length 0:00:02.55
Peak level 93.6 %
Track quality 100.0 %
Test CRC D039533A
Copy CRC D039533A
Accurately ripped (confidence 21) [E3826B1E]
Copy OK
Track 10
Filename C:\Cameo - The Best Of (1993) [FLAC]\10 - Flirt.wav
Pre-gap length 0:00:03.10
Peak level 100.0 %
Track quality 100.0 %
Test CRC 0B60CDE8
Copy CRC 0B60CDE8
Accurately ripped (confidence 19) [49D200C1]
Copy OK
Track 11
Filename C:\Cameo - The Best Of (1993) [FLAC]\11 - She's Strange (12'' Rap Version).wav
Pre-gap length 0:00:02.70
Peak level 87.0 %
Track quality 100.0 %
Test CRC 8763DE30
Copy CRC 8763DE30
Accurately ripped (confidence 20) [59AC4B0F]
Copy OK
Track 12
Filename C:\Cameo - The Best Of (1993) [FLAC]\12 - I Just Want To Be.wav
Pre-gap length 0:00:02.55
Peak level 100.0 %
Track quality 100.0 %
Test CRC 5A980628
Copy CRC 5A980628
Accurately ripped (confidence 21) [C2CD1375]
Copy OK
Track 13
Filename C:\Cameo - The Best Of (1993) [FLAC]\13 - Skin I'm In.wav
Pre-gap length 0:00:02.58
Peak level 100.0 %
Track quality 100.0 %
Test CRC 42E5772E
Copy CRC 42E5772E
Accurately ripped (confidence 21) [154744D2]
Copy OK
Track 14
Filename C:\Cameo - The Best Of (1993) [FLAC]\14 - It's Over.wav
Pre-gap length 0:00:02.33
Peak level 68.8 %
Track quality 100.0 %
Test CRC EBE39D91
Copy CRC EBE39D91
Accurately ripped (confidence 20) [0F74E51D]
Copy OK
Track 15
Filename C:\Cameo - The Best Of (1993) [FLAC]\15 - She's Mine.wav
Pre-gap length 0:00:02.17
Peak level 95.6 %
Track quality 99.9 %
Test CRC AEEF3D05
Copy CRC AEEF3D05
Accurately ripped (confidence 20) [8C92736E]
Copy OK
All tracks accurately ripped
No errors occurred
End of status report
 
CUE
REM GENRE Funk
REM DATE 1993
REM DISCID CF12230F
REM COMMENT "ExactAudioCopy v0.99pb5"
CATALOG 0731451492921
PERFORMER "Cameo"
TITLE "The Best Of"
FILE "01 - Word Up.wav" WAVE
TRACK 01 AUDIO
TITLE "Word Up"
PERFORMER "Cameo"
PREGAP 00:00:33
INDEX 01 00:00:00
TRACK 02 AUDIO
TITLE "Single Life"
PERFORMER "Cameo"
INDEX 00 04:20:12
FILE "02 - Single Life.wav" WAVE
INDEX 01 00:00:00
TRACK 03 AUDIO
TITLE "Candy"
PERFORMER "Cameo"
INDEX 00 06:35:27
FILE "03 - Candy.wav" WAVE
INDEX 01 00:00:00
TRACK 04 AUDIO
TITLE "Shake Your Pants"
PERFORMER "Cameo"
INDEX 00 05:39:67
FILE "04 - Shake Your Pants.wav" WAVE
INDEX 01 00:00:00
TRACK 05 AUDIO
TITLE "Rigor Mortis"
PERFORMER "Cameo"
INDEX 00 06:21:65
FILE "05 - Rigor Mortis.wav" WAVE
INDEX 01 00:00:00
TRACK 06 AUDIO
TITLE "Attack Me With Your Love"
PERFORMER "Cameo"
INDEX 00 05:21:33
FILE "06 - Attack Me With Your Love.wav" WAVE
INDEX 01 00:00:00
TRACK 07 AUDIO
TITLE "Talkin' Out The Side Of Your Neck"
PERFORMER "Cameo"
INDEX 00 04:30:70
FILE "07 - Talkin' Out The Side Of Your Neck.wav" WAVE
INDEX 01 00:00:00
TRACK 08 AUDIO
TITLE "Sparkle"
PERFORMER "Cameo"
INDEX 00 04:06:23
FILE "08 - Sparkle.wav" WAVE
INDEX 01 00:00:00
TRACK 09 AUDIO
TITLE "Back And Forth"
PERFORMER "Cameo"
INDEX 00 04:51:37
FILE "09 - Back And Forth.wav" WAVE
INDEX 01 00:00:00
TRACK 10 AUDIO
TITLE "Flirt"
PERFORMER "Cameo"
INDEX 00 03:51:58
FILE "10 - Flirt.wav" WAVE
INDEX 01 00:00:00
TRACK 11 AUDIO
TITLE "She's Strange (12'' Rap Version)"
PERFORMER "Cameo"
INDEX 00 04:07:02
FILE "11 - She's Strange (12'' Rap Version).wav" WAVE
INDEX 01 00:00:00
TRACK 12 AUDIO
TITLE "I Just Want To Be"
PERFORMER "Cameo"
INDEX 00 06:52:18
FILE "12 - I Just Want To Be.wav" WAVE
INDEX 01 00:00:00
TRACK 13 AUDIO
TITLE "Skin I'm In"
PERFORMER "Cameo"
INDEX 00 05:18:57
FILE "13 - Skin I'm In.wav" WAVE
INDEX 01 00:00:00
TRACK 14 AUDIO
TITLE "It's Over"
PERFORMER "Cameo"
INDEX 00 06:25:42
FILE "14 - It's Over.wav" WAVE
INDEX 01 00:00:00
TRACK 15 AUDIO
TITLE "She's Mine"
PERFORMER "Cameo"
INDEX 00 04:15:40
FILE "15 - She's Mine.wav" WAVE
INDEX 01 00:00:00
 
1996 - Nasty (Essential - ESMCD 445)

Продолжительность: 01:04:07
01. Cameo - Intro [01:03]
02. Cameo - Flirt [01:36]
03. Cameo - She's Strange [02:37]
04. Cameo - Back & Forth [05:54]
05. Cameo - Skin I'm In [05:04]
06. Cameo - Why Have I Lost You [06:10]
07. Cameo - Sparkle [04:23]
08. Cameo - Candy [04:45]
09. Cameo - Shake Your Pants (Intro) [00:42]
10. Cameo - Shake Your Pants [04:00]
11. Cameo - I Just Want To Be [01:38]
12. Cameo - Keep It Hot [05:11]
13. Cameo - Word Up [06:44]
14. Cameo - Come Fly With Me [03:57]
15. Cameo - Nasty [03:47]
16. Cameo - Mega Mix [06:28]
 
log and sheet
 
Log
EAC extraction logfile from 23. September 2007, 17:59 for CD
Cameo / Nasty
Used drive : PLEXTOR DVDR PX-716A Adapter: 1 ID: 0
Read mode : Secure with NO C2, accurate stream, disable cache
Read offset correction : 30
Overread into Lead-In and Lead-Out : No
Used output format : Internal WAV Routines
44.100 Hz; 16 Bit; Stereo
Other options :
Fill up missing offset samples with silence : Yes
Delete leading and trailing silent blocks : No
Installed external ASPI interface
Track 1
Filename F:\[MyRip]\01 - Intro.wav
Pre-gap length 0:00:02.00
Peak level 99.4 %
Track quality 100.0 %
Test CRC ADAAE890
Copy CRC ADAAE890
Copy OK
Track 2
Filename F:\[MyRip]\02 - Flirt.wav
Peak level 99.4 %
Track quality 100.0 %
Test CRC 40EC6B6C
Copy CRC 40EC6B6C
Copy OK
Track 3
Filename F:\[MyRip]\03 - She's Strange.wav
Peak level 99.4 %
Track quality 100.0 %
Test CRC 6436C020
Copy CRC 6436C020
Copy OK
Track 4
Filename F:\[MyRip]\04 - Back & Forth.wav
Peak level 99.4 %
Track quality 100.0 %
Test CRC 28676358
Copy CRC 28676358
Copy OK
Track 5
Filename F:\[MyRip]\05 - Skin I'm In.wav
Peak level 99.4 %
Track quality 100.0 %
Test CRC 3314F1BD
Copy CRC 3314F1BD
Copy OK
Track 6
Filename F:\[MyRip]\06 - Why Have I Lost You.wav
Peak level 99.4 %
Track quality 100.0 %
Test CRC 935B2BBB
Copy CRC 935B2BBB
Copy OK
Track 7
Filename F:\[MyRip]\07 - Sparkle.wav
Peak level 99.4 %
Track quality 100.0 %
Test CRC 2288E920
Copy CRC 2288E920
Copy OK
Track 8
Filename F:\[MyRip]\08 - Candy.wav
Peak level 99.4 %
Track quality 100.0 %
Test CRC 2E1373E2
Copy CRC 2E1373E2
Copy OK
Track 9
Filename F:\[MyRip]\09 - Shake Your Pants (Intro).wav
Peak level 99.2 %
Track quality 99.7 %
Test CRC 91AFBE7B
Copy CRC 91AFBE7B
Copy OK
Track 10
Filename F:\[MyRip]\10 - Shake Your Pants.wav
Peak level 99.4 %
Track quality 100.0 %
Test CRC EA9A0CE9
Copy CRC EA9A0CE9
Copy OK
Track 11
Filename F:\[MyRip]\11 - I Just Want To Be.wav
Peak level 99.4 %
Track quality 100.0 %
Test CRC B4937658
Copy CRC B4937658
Copy OK
Track 12
Filename F:\[MyRip]\12 - Keep It Hot.wav
Peak level 99.4 %
Track quality 100.0 %
Test CRC 6E78D3AB
Copy CRC 6E78D3AB
Copy OK
Track 13
Filename F:\[MyRip]\13 - Word Up.wav
Peak level 99.4 %
Track quality 100.0 %
Test CRC 559A526C
Copy CRC 559A526C
Copy OK
Track 14
Filename F:\[MyRip]\14 - Come Fly With Me.wav
Peak level 99.4 %
Track quality 100.0 %
Test CRC BFD53D2C
Copy CRC BFD53D2C
Copy OK
Track 15
Filename F:\[MyRip]\15 - Nasty.wav
Pre-gap length 0:00:02.55
Peak level 100.0 %
Track quality 100.0 %
Test CRC 569D52B3
Copy CRC 569D52B3
Copy OK
Track 16
Filename F:\[MyRip]\16 - Mega Mix.wav
Pre-gap length 0:00:02.55
Peak level 99.4 %
Track quality 100.0 %
Test CRC 1EE87031
Copy CRC 1EE87031
Copy OK
No errors occured
End of status report
------------------------------------------------------------
EAC extraction logfile from 23. September 2007, 17:59 for CD
Cameo / Nasty
Used drive : PLEXTOR DVDR PX-716A Adapter: 1 ID: 0
Read mode : Secure with NO C2, accurate stream, disable cache
Read offset correction : 30
Overread into Lead-In and Lead-Out : No
Used output format : Internal WAV Routines
44.100 Hz; 16 Bit; Stereo
Other options :
Fill up missing offset samples with silence : Yes
Delete leading and trailing silent blocks : No
Installed external ASPI interface
Track 1
Filename F:\[MyRip]\01 - Intro.wav
Pre-gap length 0:00:02.00
Peak level 99.4 %
Track quality 100.0 %
Test CRC ADAAE890
Copy CRC ADAAE890
Copy OK
Track 2
Filename F:\[MyRip]\02 - Flirt.wav
Peak level 99.4 %
Track quality 100.0 %
Test CRC 40EC6B6C
Copy CRC 40EC6B6C
Copy OK
Track 3
Filename F:\[MyRip]\03 - She's Strange.wav
Peak level 99.4 %
Track quality 100.0 %
Test CRC 6436C020
Copy CRC 6436C020
Copy OK
Track 4
Filename F:\[MyRip]\04 - Back & Forth.wav
Peak level 99.4 %
Track quality 100.0 %
Test CRC 28676358
Copy CRC 28676358
Copy OK
Track 5
Filename F:\[MyRip]\05 - Skin I'm In.wav
Peak level 99.4 %
Track quality 100.0 %
Test CRC 3314F1BD
Copy CRC 3314F1BD
Copy OK
Track 6
Filename F:\[MyRip]\06 - Why Have I Lost You.wav
Peak level 99.4 %
Track quality 100.0 %
Test CRC 935B2BBB
Copy CRC 935B2BBB
Copy OK
Track 7
Filename F:\[MyRip]\07 - Sparkle.wav
Peak level 99.4 %
Track quality 100.0 %
Test CRC 2288E920
Copy CRC 2288E920
Copy OK
Track 8
Filename F:\[MyRip]\08 - Candy.wav
Peak level 99.4 %
Track quality 100.0 %
Test CRC 2E1373E2
Copy CRC 2E1373E2
Copy OK
Track 9
Filename F:\[MyRip]\09 - Shake Your Pants (Intro).wav
Peak level 99.2 %
Track quality 99.7 %
Test CRC 91AFBE7B
Copy CRC 91AFBE7B
Copy OK
Track 10
Filename F:\[MyRip]\10 - Shake Your Pants.wav
Peak level 99.4 %
Track quality 100.0 %
Test CRC EA9A0CE9
Copy CRC EA9A0CE9
Copy OK
Track 11
Filename F:\[MyRip]\11 - I Just Want To Be.wav
Peak level 99.4 %
Track quality 100.0 %
Test CRC B4937658
Copy CRC B4937658
Copy OK
Track 12
Filename F:\[MyRip]\12 - Keep It Hot.wav
Peak level 99.4 %
Track quality 100.0 %
Test CRC 6E78D3AB
Copy CRC 6E78D3AB
Copy OK
Track 13
Filename F:\[MyRip]\13 - Word Up.wav
Peak level 99.4 %
Track quality 100.0 %
Test CRC 559A526C
Copy CRC 559A526C
Copy OK
Track 14
Filename F:\[MyRip]\14 - Come Fly With Me.wav
Peak level 99.4 %
Track quality 100.0 %
Test CRC BFD53D2C
Copy CRC BFD53D2C
Copy OK
Track 15
Filename F:\[MyRip]\15 - Nasty.wav
Pre-gap length 0:00:02.55
Peak level 100.0 %
Track quality 100.0 %
Test CRC 569D52B3
Copy CRC 569D52B3
Copy OK
Track 16
Filename F:\[MyRip]\16 - Mega Mix.wav
Pre-gap length 0:00:02.55
Peak level 99.4 %
Track quality 100.0 %
Test CRC 1EE87031
Copy CRC 1EE87031
Copy OK
No errors occured
End of status report
 
CUE
REM GENRE Funk
REM DATE 1996
REM DISCID EC0F0710
REM COMMENT "ExactAudioCopy v0.95b3"
PERFORMER "Cameo"
TITLE "Nasty"
FILE "01 - Intro.flac" WAVE
TRACK 01 AUDIO
TITLE "Intro"
PERFORMER "Cameo"
INDEX 01 00:00:00
FILE "02 - Flirt.flac" WAVE
TRACK 02 AUDIO
TITLE "Flirt"
PERFORMER "Cameo"
INDEX 01 00:00:00
FILE "03 - She's Strange.flac" WAVE
TRACK 03 AUDIO
TITLE "She's Strange"
PERFORMER "Cameo"
INDEX 01 00:00:00
FILE "04 - Back & Forth.flac" WAVE
TRACK 04 AUDIO
TITLE "Back & Forth"
PERFORMER "Cameo"
INDEX 01 00:00:00
FILE "05 - Skin I'm In.flac" WAVE
TRACK 05 AUDIO
TITLE "Skin I'm In"
PERFORMER "Cameo"
INDEX 01 00:00:00
FILE "06 - Why Have I Lost You.flac" WAVE
TRACK 06 AUDIO
TITLE "Why Have I Lost You"
PERFORMER "Cameo"
INDEX 01 00:00:00
FILE "07 - Sparkle.flac" WAVE
TRACK 07 AUDIO
TITLE "Sparkle"
PERFORMER "Cameo"
INDEX 01 00:00:00
FILE "08 - Candy.flac" WAVE
TRACK 08 AUDIO
TITLE "Candy"
PERFORMER "Cameo"
INDEX 01 00:00:00
FILE "09 - Shake Your Pants (Intro).flac" WAVE
TRACK 09 AUDIO
TITLE "Shake Your Pants (Intro)"
PERFORMER "Cameo"
INDEX 01 00:00:00
FILE "10 - Shake Your Pants.flac" WAVE
TRACK 10 AUDIO
TITLE "Shake Your Pants"
PERFORMER "Cameo"
INDEX 01 00:00:00
FILE "11 - I Just Want To Be.flac" WAVE
TRACK 11 AUDIO
TITLE "I Just Want To Be"
PERFORMER "Cameo"
INDEX 01 00:00:00
FILE "12 - Keep It Hot.flac" WAVE
TRACK 12 AUDIO
TITLE "Keep It Hot"
PERFORMER "Cameo"
INDEX 01 00:00:00
FILE "13 - Word Up.flac" WAVE
TRACK 13 AUDIO
TITLE "Word Up"
PERFORMER "Cameo"
INDEX 01 00:00:00
FILE "14 - Come Fly With Me.flac" WAVE
TRACK 14 AUDIO
TITLE "Come Fly With Me"
PERFORMER "Cameo"
INDEX 01 00:00:00
TRACK 15 AUDIO
TITLE "Nasty"
PERFORMER "Cameo"
INDEX 00 03:54:48
FILE "15 - Nasty.flac" WAVE
INDEX 01 00:00:00
TRACK 16 AUDIO
TITLE "Mega Mix"
PERFORMER "Cameo"
INDEX 00 03:44:37
FILE "16 - Mega Mix.flac" WAVE
INDEX 01 00:00:00
 
2003 - Ugly Ego (1978) (Chocolate City - 077 251-2)
Продолжительность: 36:38
01 Cameo - I'll Be With You [04:23]
02 Cameo - Insane [05:01]
03 Cameo - Give Love A Chance [04:50]
04 Cameo - I Want You [04:09]
05 Cameo - Ugly Ego [04:53]
06 Cameo - Anything You Wanna Do [03:32]
07 Cameo - Friend To Me [05:13]
08 Cameo - Two Of Us [04:32]
 
log and sheet
 
Log EAC
Exact Audio Copy V0.99 prebeta 4 from 23. January 2008
EAC extraction logfile from 9. November 2009, 22:19
Cameo / Ugly Ego
Used drive : PIONEER DVD-RW DVR-115D Adapter: 0 ID: 0
Read mode : Secure
Utilize accurate stream : Yes
Defeat audio cache : Yes
Make use of C2 pointers : No
Read offset correction : 48
Overread into Lead-In and Lead-Out : No
Fill up missing offset samples with silence : Yes
Delete leading and trailing silent blocks : No
Null samples used in CRC calculations : Yes
Used interface : Native Win32 interface for Win NT & 2000
Gap handling : Appended to previous track
Used output format : User Defined Encoder
Selected bitrate : 160 kBit/s
Quality : High
Add ID3 tag : No
Command line compressor : C:\Program Files\FLAC\flac.exe
Additional command line options : -8 -V -T "ARTIST=%a" -T "TITLE=%t" -T "ALBUM=%g" -T "DATE=%y" -T "TRACKNUMBER=%n" -T "GENRE=%m" -T "COMMENT=EAC FLAC -8" %s
TOC of the extracted CD
Track | Start | Length | Start sector | End sector
---------------------------------------------------------
1 | 0:00.33 | 4:23.71 | 33 | 19828
2 | 4:24.29 | 5:01.59 | 19829 | 42462
3 | 9:26.13 | 4:50.69 | 42463 | 64281
4 | 14:17.07 | 4:09.38 | 64282 | 82994
5 | 18:26.45 | 4:53.56 | 82995 | 105025
6 | 23:20.26 | 3:32.40 | 105026 | 120965
7 | 26:52.66 | 5:13.68 | 120966 | 144508
8 | 32:06.59 | 4:32.19 | 144509 | 164927
Track 1
Filename E:\Lossless\Cameo - Ugly Ego (1978) [FLAC]\01 - I'll Be With You.wav
Pre-gap length 0:00:02.44
Peak level 100.0 %
Track quality 100.0 %
Test CRC 57C1918F
Copy CRC 57C1918F
Accurately ripped (confidence 1) [6EC526BD]
Copy OK
Track 2
Filename E:\Lossless\Cameo - Ugly Ego (1978) [FLAC]\02 - Insane.wav
Peak level 100.0 %
Track quality 100.0 %
Test CRC EE2F0891
Copy CRC EE2F0891
Accurately ripped (confidence 1) [C1FAD6C3]
Copy OK
Track 3
Filename E:\Lossless\Cameo - Ugly Ego (1978) [FLAC]\03 - Give Love A Chance.wav
Peak level 100.0 %
Track quality 100.0 %
Test CRC DB4ED3F5
Copy CRC DB4ED3F5
Accurately ripped (confidence 1) [0D9E3DC3]
Copy OK
Track 4
Filename E:\Lossless\Cameo - Ugly Ego (1978) [FLAC]\04 - I Want You.wav
Peak level 100.0 %
Track quality 100.0 %
Test CRC 5BA349A3
Copy CRC 5BA349A3
Accurately ripped (confidence 1) [35CA95B8]
Copy OK
Track 5
Filename E:\Lossless\Cameo - Ugly Ego (1978) [FLAC]\05 - Ugly Ego.wav
Peak level 100.0 %
Track quality 100.0 %
Test CRC 572F00A6
Copy CRC 572F00A6
Accurately ripped (confidence 1) [458EC011]
Copy OK
Track 6
Filename E:\Lossless\Cameo - Ugly Ego (1978) [FLAC]\06 - Anything You Wanna Do.wav
Peak level 100.0 %
Track quality 99.9 %
Test CRC 038E47B1
Copy CRC 038E47B1
Accurately ripped (confidence 1) [94F4ADED]
Copy OK
Track 7
Filename E:\Lossless\Cameo - Ugly Ego (1978) [FLAC]\07 - Friend To Me.wav
Peak level 100.0 %
Track quality 100.0 %
Test CRC 78621A5A
Copy CRC 78621A5A
Accurately ripped (confidence 1) [1499CB2B]
Copy OK
Track 8
Filename E:\Lossless\Cameo - Ugly Ego (1978) [FLAC]\08 - Two Of Us.wav
Peak level 100.0 %
Track quality 100.0 %
Test CRC 33E3AD23
Copy CRC 33E3AD23
Accurately ripped (confidence 1) [A22C5A60]
Copy OK
All tracks accurately ripped
No errors occurred
End of status report
 
CUE
REM GENRE Funk
REM DATE 1978
REM DISCID 6A089708
REM COMMENT "ExactAudioCopy v0.99pb4"
PERFORMER "Cameo"
TITLE "Ugly Ego"
FILE "01 - I'll Be With You.wav" WAVE
TRACK 01 AUDIO
TITLE "I'll Be With You"
PERFORMER "Cameo"
PREGAP 00:00:33
INDEX 01 00:00:00
FILE "02 - Insane.wav" WAVE
TRACK 02 AUDIO
TITLE "Insane"
PERFORMER "Cameo"
INDEX 01 00:00:00
FILE "03 - Give Love A Chance.wav" WAVE
TRACK 03 AUDIO
TITLE "Give Love A Chance"
PERFORMER "Cameo"
INDEX 01 00:00:00
FILE "04 - I Want You.wav" WAVE
TRACK 04 AUDIO
TITLE "I Want You"
PERFORMER "Cameo"
INDEX 01 00:00:00
FILE "05 - Ugly Ego.wav" WAVE
TRACK 05 AUDIO
TITLE "Ugly Ego"
PERFORMER "Cameo"
INDEX 01 00:00:00
FILE "06 - Anything You Wanna Do.wav" WAVE
TRACK 06 AUDIO
TITLE "Anything You Wanna Do"
PERFORMER "Cameo"
INDEX 01 00:00:00
FILE "07 - Friend To Me.wav" WAVE
TRACK 07 AUDIO
TITLE "Friend To Me"
PERFORMER "Cameo"
INDEX 01 00:00:00
FILE "08 - Two Of Us.wav" WAVE
TRACK 08 AUDIO
TITLE "Two Of Us"
PERFORMER "Cameo"
INDEX 01 00:00:00
Приватный:
Нет (DHT включён)
Размер:
2.27 Гб (2,439,792,410 байт) » файлов: 147
Участники:
0 раздают, 0 качают (0 участников всего)
Внешние участники:
3 раздают, 1 качают (4 участников всего) [ Обновить ]
Скорость:
122.03 Кб/c 0/c
Никого нет на раздаче - пишите личное сообщение M0p94ok
No seeders - write personal message to M0p94ok
03:00
25
Нет комментариев. Ваш будет первым!