Поиск

(Funk, Soul) Curtis Mayfield - Curtis (R2 79932) & Do It All Night (CPCD8050) - 1970-1978, FLAC (tracks+.cue), lossless

(Funk, Soul) Curtis Mayfield - Curtis (R2 79932) & Do It All Night (CPCD8050) - 1970-1978, FLAC (tracks+.cue), lossless
Треклист:
Curtis Mayfield - Curtis & Do It All Night
Жанр: Funk, Soul
Год выпуска диска: 1970 - 1978
Аудио кодек: FLAC
Тип рипа: tracks+.cue
Битрейт аудио: lossless
Продолжительность: 01:53:16

Собственноручные рипы с оригинальных дисков от funky_cat!
 
Curtis 1970 (R2 79932) - 2000 (Remaster)
Продолжительность: 77 min 43 sec
1. Curtis Mayfield - (Don't Worry) If There's a Hell Below We're All Going to Go (7:50)
2. Curtis Mayfield - The Other Side of Town (4:01)
3. Curtis Mayfield - The Makings of You (3:43)
4. Curtis Mayfield - We the People Who Are Darker than Blue (6:05)
5. Curtis Mayfield - Move on Up (8:54)
6. Curtis Mayfield - Miss Black America (2:58)
7. Curtis Mayfield - Wild and Free (3:16)
8. Curtis Mayfield - Give It Up (3:49)
9. Curtis Mayfield - Power to the People (demo) (2:47)
10. Curtis Mayfield - Underground (demo) (3:11)
11. Curtis Mayfield - Ghetto Child (demo) (5:10)
12. Curtis Mayfield - Readings in Astrology (demo) (3:31)
13. Curtis Mayfield - Suffer (demo) (2:31)
14. Curtis Mayfield - Miss Black America (demo) (2:22)
15. Curtis Mayfield - The Makings of You (backing tracks, take 32) (4:35)
16. Curtis Mayfield - (Don't Worry) If There's a Hell Below We're All Going to Go (backing tracks, takes 1 & 2) (9:34)
17. Curtis Mayfield - (Don't Worry) If There's a Hell Below We're All Going to Go (edited single version) (3:26)
 
Log EAC
Exact Audio Copy V0.99 prebeta 5 from 4. May 2009
EAC extraction logfile from 7. March 2010, 14:24
Curtis Mayfield / Curtis
Used drive : ASUS CB-5216A Adapter: 0 ID: 1
Read mode : Secure
Utilize accurate stream : Yes
Defeat audio cache : Yes
Make use of C2 pointers : No
Read offset correction : 6
Overread into Lead-In and Lead-Out : No
Fill up missing offset samples with silence : Yes
Delete leading and trailing silent blocks : No
Null samples used in CRC calculations : Yes
Used interface : Native Win32 interface for Win NT & 2000
Gap handling : Appended to previous track
Used output format : User Defined Encoder
Selected bitrate : 320 kBit/s
Quality : High
Add ID3 tag : No
Command line compressor : C:\Program Files\FLAC\flac.exe
Additional command line options : -5 -V -T "ARTIST=%a" -T "TITLE=%t" -T "ALBUM=%g" -T "DATE=%y" -T "TRACKNUMBER=%n" -T "GENRE=%m" -T "COMMENT=Ripped By andygrakoff aka yetiisyou" %s
TOC of the extracted CD
Track | Start | Length | Start sector | End sector
---------------------------------------------------------
1 | 0:00.32 | 7:50.38 | 32 | 35319
2 | 7:50.70 | 4:01.65 | 35320 | 53459
3 | 11:52.60 | 3:43.65 | 53460 | 70249
4 | 15:36.50 | 6:05.65 | 70250 | 97689
5 | 21:42.40 | 8:54.25 | 97690 | 137764
6 | 30:36.65 | 2:58.40 | 137765 | 151154
7 | 33:35.30 | 3:16.35 | 151155 | 165889
8 | 36:51.65 | 3:49.25 | 165890 | 183089
9 | 40:41.15 | 2:47.17 | 183090 | 195631
10 | 43:28.32 | 3:11.58 | 195632 | 210014
11 | 46:40.15 | 5:10.22 | 210015 | 233286
12 | 51:50.37 | 3:31.05 | 233287 | 249116
13 | 55:21.42 | 2:31.53 | 249117 | 260494
14 | 57:53.20 | 2:22.72 | 260495 | 271216
15 | 60:16.17 | 4:35.13 | 271217 | 291854
16 | 64:51.30 | 9:34.55 | 291855 | 334959
17 | 74:26.10 | 3:26.57 | 334960 | 350466
Track 1
Filename E:\!Rips\FUNK @ SOUL\Curtis Mayfield - Curtis (R2 79932)\01 – (Don't Worry) If There's a Hell Below We're All Going to Go.wav
Pre-gap length 0:00:02.42
Peak level 94.6 %
Track quality 99.9 %
Test CRC 7289AFA2
Copy CRC 7289AFA2
Accurately ripped (confidence 10) [3243D3A9]
Copy OK
Track 2
Filename E:\!Rips\FUNK @ SOUL\Curtis Mayfield - Curtis (R2 79932)\02 – The Other Side of Town.wav
Pre-gap length 0:00:00.10
Peak level 97.2 %
Track quality 100.0 %
Test CRC 330E7351
Copy CRC 330E7351
Accurately ripped (confidence 11) [AB2C5C3F]
Copy OK
Track 3
Filename E:\!Rips\FUNK @ SOUL\Curtis Mayfield - Curtis (R2 79932)\03 – The Makings of You.wav
Pre-gap length 0:00:00.97
Peak level 94.6 %
Track quality 100.0 %
Test CRC 527D6A1C
Copy CRC 527D6A1C
Accurately ripped (confidence 11) [05EF3782]
Copy OK
Track 4
Filename E:\!Rips\FUNK @ SOUL\Curtis Mayfield - Curtis (R2 79932)\04 – We the People Who Are Darker than Blue.wav
Pre-gap length 0:00:00.40
Peak level 94.6 %
Track quality 100.0 %
Test CRC F163F301
Copy CRC F163F301
Accurately ripped (confidence 11) [DB3DF899]
Copy OK
Track 5
Filename E:\!Rips\FUNK @ SOUL\Curtis Mayfield - Curtis (R2 79932)\05 – Move on Up.wav
Pre-gap length 0:00:03.70
Peak level 94.6 %
Track quality 100.0 %
Test CRC E0795A6F
Copy CRC E0795A6F
Accurately ripped (confidence 12) [C995E526]
Copy OK
Track 6
Filename E:\!Rips\FUNK @ SOUL\Curtis Mayfield - Curtis (R2 79932)\06 – Miss Black America.wav
Pre-gap length 0:00:00.24
Peak level 97.2 %
Track quality 100.0 %
Test CRC 71BF8E7B
Copy CRC 71BF8E7B
Accurately ripped (confidence 11) [9AA1A580]
Copy OK
Track 7
Filename E:\!Rips\FUNK @ SOUL\Curtis Mayfield - Curtis (R2 79932)\07 – Wild and Free.wav
Peak level 97.2 %
Track quality 100.0 %
Test CRC CA6BDECB
Copy CRC CA6BDECB
Accurately ripped (confidence 11) [A046D2DC]
Copy OK
Track 8
Filename E:\!Rips\FUNK @ SOUL\Curtis Mayfield - Curtis (R2 79932)\08 – Give It Up.wav
Pre-gap length 0:00:00.17
Peak level 97.2 %
Track quality 100.0 %
Test CRC C0834EFD
Copy CRC C0834EFD
Accurately ripped (confidence 11) [82CF7CF2]
Copy OK
Track 9
Filename E:\!Rips\FUNK @ SOUL\Curtis Mayfield - Curtis (R2 79932)\09 – Power to the People (demo).wav
Pre-gap length 0:00:05.73
Peak level 92.8 %
Track quality 100.0 %
Test CRC C6AD1BE9
Copy CRC C6AD1BE9
Accurately ripped (confidence 10) [341BA751]
Copy OK
Track 10
Filename E:\!Rips\FUNK @ SOUL\Curtis Mayfield - Curtis (R2 79932)\10 – Underground (demo).wav
Pre-gap length 0:00:01.80
Peak level 92.7 %
Track quality 100.0 %
Test CRC 9A38C65E
Copy CRC 9A38C65E
Accurately ripped (confidence 10) [8C91B40C]
Copy OK
Track 11
Filename E:\!Rips\FUNK @ SOUL\Curtis Mayfield - Curtis (R2 79932)\11 – Ghetto Child (demo).wav
Pre-gap length 0:00:01.13
Peak level 92.8 %
Track quality 100.0 %
Test CRC 6CE7C5AF
Copy CRC 6CE7C5AF
Accurately ripped (confidence 10) [E547E7E6]
Copy OK
Track 12
Filename E:\!Rips\FUNK @ SOUL\Curtis Mayfield - Curtis (R2 79932)\12 – Readings in Astrology (demo).wav
Pre-gap length 0:00:02.82
Peak level 93.1 %
Track quality 100.0 %
Test CRC 80D9D88B
Copy CRC 80D9D88B
Accurately ripped (confidence 10) [EC21BF4B]
Copy OK
Track 13
Filename E:\!Rips\FUNK @ SOUL\Curtis Mayfield - Curtis (R2 79932)\13 – Suffer (demo).wav
Pre-gap length 0:00:02.06
Peak level 93.1 %
Track quality 100.0 %
Test CRC 63CFEFE5
Copy CRC 63CFEFE5
Accurately ripped (confidence 11) [8F0D4014]
Copy OK
Track 14
Filename E:\!Rips\FUNK @ SOUL\Curtis Mayfield - Curtis (R2 79932)\14 – Miss Black America (demo).wav
Pre-gap length 0:00:00.46
Peak level 93.3 %
Track quality 100.0 %
Test CRC BDC3B8A0
Copy CRC BDC3B8A0
Accurately ripped (confidence 11) [EEAD87AF]
Copy OK
Track 15
Filename E:\!Rips\FUNK @ SOUL\Curtis Mayfield - Curtis (R2 79932)\15 – The Makings of You (backing tracks, take 32).wav
Pre-gap length 0:00:02.16
Peak level 93.1 %
Track quality 100.0 %
Test CRC 7D4077C6
Copy CRC 7D4077C6
Accurately ripped (confidence 11) [B3CB97D3]
Copy OK
Track 16
Filename E:\!Rips\FUNK @ SOUL\Curtis Mayfield - Curtis (R2 79932)\16 – (Don't Worry) If There's a Hell Below We're All Going to Go (backing tracks, takes 1 & 2).wav
Pre-gap length 0:00:02.84
Peak level 94.6 %
Track quality 100.0 %
Test CRC 739E9419
Copy CRC 739E9419
Accurately ripped (confidence 11) [9DAC792E]
Copy OK
Track 17
Filename E:\!Rips\FUNK @ SOUL\Curtis Mayfield - Curtis (R2 79932)\17 – (Don't Worry) If There's a Hell Below We're All Going to Go (edited single version).wav
Pre-gap length 0:00:02.53
Peak level 92.8 %
Track quality 100.0 %
Test CRC CFEF3DAA
Copy CRC CFEF3DAA
Accurately ripped (confidence 11) [845B729D]
Copy OK
All tracks accurately ripped
No errors occurred
End of status report
 
CUE
REM GENRE Soul
REM DATE 1970
REM DISCID E3124011
REM COMMENT "ExactAudioCopy v0.99pb5"
PERFORMER "Curtis Mayfield"
TITLE "Curtis"
FILE "01 – (Don't Worry) If There's a Hell Below We're All Going to Go.wav" WAVE
TRACK 01 AUDIO
TITLE "(Don't Worry) If There's a Hell Below We're All Going to Go"
PERFORMER "Curtis Mayfield"
PREGAP 00:00:32
INDEX 01 00:00:00
TRACK 02 AUDIO
TITLE "The Other Side of Town"
PERFORMER "Curtis Mayfield"
INDEX 00 07:50:30
FILE "02 – The Other Side of Town.wav" WAVE
INDEX 01 00:00:00
TRACK 03 AUDIO
TITLE "The Makings of You"
PERFORMER "Curtis Mayfield"
INDEX 00 04:00:67
FILE "03 – The Makings of You.wav" WAVE
INDEX 01 00:00:00
TRACK 04 AUDIO
TITLE "We the People Who Are Darker than Blue"
PERFORMER "Curtis Mayfield"
INDEX 00 03:43:35
FILE "04 – We the People Who Are Darker than Blue.wav" WAVE
INDEX 01 00:00:00
TRACK 05 AUDIO
TITLE "Move on Up"
PERFORMER "Curtis Mayfield"
INDEX 00 06:02:12
FILE "05 – Move on Up.wav" WAVE
INDEX 01 00:00:00
TRACK 06 AUDIO
TITLE "Miss Black America"
PERFORMER "Curtis Mayfield"
INDEX 00 08:54:07
FILE "06 – Miss Black America.wav" WAVE
INDEX 01 00:00:00
FILE "07 – Wild and Free.wav" WAVE
TRACK 07 AUDIO
TITLE "Wild and Free"
PERFORMER "Curtis Mayfield"
INDEX 01 00:00:00
TRACK 08 AUDIO
TITLE "Give It Up"
PERFORMER "Curtis Mayfield"
INDEX 00 03:16:22
FILE "08 – Give It Up.wav" WAVE
INDEX 01 00:00:00
TRACK 09 AUDIO
TITLE "Power to the People (demo)"
PERFORMER "Curtis Mayfield"
INDEX 00 03:43:45
FILE "09 – Power to the People (demo).wav" WAVE
INDEX 01 00:00:00
TRACK 10 AUDIO
TITLE "Underground (demo)"
PERFORMER "Curtis Mayfield"
INDEX 00 02:45:32
FILE "10 – Underground (demo).wav" WAVE
INDEX 01 00:00:00
TRACK 11 AUDIO
TITLE "Ghetto Child (demo)"
PERFORMER "Curtis Mayfield"
INDEX 00 03:10:48
FILE "11 – Ghetto Child (demo).wav" WAVE
INDEX 01 00:00:00
TRACK 12 AUDIO
TITLE "Readings in Astrology (demo)"
PERFORMER "Curtis Mayfield"
INDEX 00 05:07:35
FILE "12 – Readings in Astrology (demo).wav" WAVE
INDEX 01 00:00:00
TRACK 13 AUDIO
TITLE "Suffer (demo)"
PERFORMER "Curtis Mayfield"
INDEX 00 03:29:00
FILE "13 – Suffer (demo).wav" WAVE
INDEX 01 00:00:00
TRACK 14 AUDIO
TITLE "Miss Black America (demo)"
PERFORMER "Curtis Mayfield"
INDEX 00 02:31:18
FILE "14 – Miss Black America (demo).wav" WAVE
INDEX 01 00:00:00
TRACK 15 AUDIO
TITLE "The Makings of You (backing tracks, take 32)"
PERFORMER "Curtis Mayfield"
INDEX 00 02:20:60
FILE "15 – The Makings of You (backing tracks, take 32).wav" WAVE
INDEX 01 00:00:00
TRACK 16 AUDIO
TITLE "(Don't Worry) If There's a Hell Below We're All Going to Go (backing tracks, ..."
PERFORMER "Curtis Mayfield"
INDEX 00 04:32:25
FILE "16 – (Don't Worry) If There's a Hell Below We're All Going to Go (backing tracks, takes 1 & 2).wav" WAVE
INDEX 01 00:00:00
TRACK 17 AUDIO
TITLE "(Don't Worry) If There's a Hell Below We're All Going to Go (edited single ve..."
PERFORMER "Curtis Mayfield"
INDEX 00 09:32:15
FILE "17 – (Don't Worry) If There's a Hell Below We're All Going to Go (edited single version).wav" WAVE
INDEX 01 00:00:00
ж
 
Do It All Night (1978) Remaster 1994 (CPCD8050)
Продолжительность: 35 min 33 sec
1. Curtis Mayfield - Do it All Night (8:24)
2. Curtis Mayfield - No Goodbyes (7:43)
3. Curtis Mayfield - Party, Party (7:56)
4. Curtis Mayfield - Keeps Me Loving You (3:28)
5. Curtis Mayfield - In Love, In Love, In Love (4:23)
6. Curtis Mayfield - You Are, You Are (3:39)
 
Log EAC
Exact Audio Copy V0.99 prebeta 5 from 4. May 2009
EAC extraction logfile from 8. March 2010, 1:59
Curtis Mayfield / Do it All Night
Used drive : ASUS CB-5216A Adapter: 0 ID: 1
Read mode : Secure
Utilize accurate stream : Yes
Defeat audio cache : Yes
Make use of C2 pointers : No
Read offset correction : 6
Overread into Lead-In and Lead-Out : No
Fill up missing offset samples with silence : Yes
Delete leading and trailing silent blocks : No
Null samples used in CRC calculations : Yes
Used interface : Native Win32 interface for Win NT & 2000
Gap handling : Appended to previous track
Used output format : User Defined Encoder
Selected bitrate : 320 kBit/s
Quality : High
Add ID3 tag : No
Command line compressor : C:\Program Files\FLAC\flac.exe
Additional command line options : -5 -V -T "ARTIST=%a" -T "TITLE=%t" -T "ALBUM=%g" -T "DATE=%y" -T "TRACKNUMBER=%n" -T "GENRE=%m" -T "COMMENT=Ripped By andygrakoff aka yetiisyou" %s
TOC of the extracted CD
Track | Start | Length | Start sector | End sector
---------------------------------------------------------
1 | 0:00.00 | 8:24.05 | 0 | 37804
2 | 8:24.05 | 7:43.18 | 37805 | 72547
3 | 16:07.23 | 7:56.37 | 72548 | 108284
4 | 24:03.60 | 3:28.13 | 108285 | 123897
5 | 27:31.73 | 4:23.55 | 123898 | 143677
6 | 31:55.53 | 3:39.02 | 143678 | 160104
Track 1
Filename E:\!Rips\FUNK @ SOUL\Curtis Mayfield - Do It All Night (1978) 1994 (CPCD8050)\01 – Do it All Night.wav
Pre-gap length 0:00:02.00
Peak level 100.0 %
Track quality 99.9 %
Test CRC 14E52D76
Copy CRC 14E52D76
Accurately ripped (confidence 3) [0CD9AF37]
Copy OK
Track 2
Filename E:\!Rips\FUNK @ SOUL\Curtis Mayfield - Do It All Night (1978) 1994 (CPCD8050)\02 – No Goodbyes.wav
Pre-gap length 0:00:02.36
Peak level 100.0 %
Track quality 99.9 %
Test CRC 0AF0684B
Copy CRC 0AF0684B
Accurately ripped (confidence 3) [B286BCD8]
Copy OK
Track 3
Filename E:\!Rips\FUNK @ SOUL\Curtis Mayfield - Do It All Night (1978) 1994 (CPCD8050)\03 – Party, Party.wav
Pre-gap length 0:00:02.04
Peak level 98.5 %
Track quality 99.9 %
Test CRC 7D4E8487
Copy CRC 7D4E8487
Accurately ripped (confidence 3) [1D86243A]
Copy OK
Track 4
Filename E:\!Rips\FUNK @ SOUL\Curtis Mayfield - Do It All Night (1978) 1994 (CPCD8050)\04 – Keeps Me Loving You.wav
Pre-gap length 0:00:02.16
Peak level 100.0 %
Track quality 100.0 %
Test CRC 56E95A8A
Copy CRC 56E95A8A
Accurately ripped (confidence 3) [26A0B3CA]
Copy OK
Track 5
Filename E:\!Rips\FUNK @ SOUL\Curtis Mayfield - Do It All Night (1978) 1994 (CPCD8050)\05 – In Love, In Love, In Love.wav
Pre-gap length 0:00:02.57
Peak level 90.7 %
Track quality 100.0 %
Test CRC 0B37B270
Copy CRC 0B37B270
Accurately ripped (confidence 3) [44C5C36F]
Copy OK
Track 6
Filename E:\!Rips\FUNK @ SOUL\Curtis Mayfield - Do It All Night (1978) 1994 (CPCD8050)\06 – You Are, You Are.wav
Pre-gap length 0:00:02.30
Peak level 98.2 %
Track quality 100.0 %
Test CRC FEAA1B1A
Copy CRC FEAA1B1A
Accurately ripped (confidence 3) [12108598]
Copy OK
All tracks accurately ripped
No errors occurred
End of status report
 
CUE
REM DISCID 54085606
REM COMMENT "ExactAudioCopy v0.99pb5"
PERFORMER "Curtis Mayfield"
TITLE "Do it All Night"
FILE "01 – Do it All Night.wav" WAVE
TRACK 01 AUDIO
TITLE "Do it All Night"
PERFORMER "Curtis Mayfield"
INDEX 01 00:00:00
TRACK 02 AUDIO
TITLE "No Goodbyes"
PERFORMER "Curtis Mayfield"
INDEX 00 08:21:53
FILE "02 – No Goodbyes.wav" WAVE
INDEX 01 00:00:00
TRACK 03 AUDIO
TITLE "Party, Party"
PERFORMER "Curtis Mayfield"
INDEX 00 07:41:15
FILE "03 – Party, Party.wav" WAVE
INDEX 01 00:00:00
TRACK 04 AUDIO
TITLE "Keeps Me Loving You"
PERFORMER "Curtis Mayfield"
INDEX 00 07:54:25
FILE "04 – Keeps Me Loving You.wav" WAVE
INDEX 01 00:00:00
TRACK 05 AUDIO
TITLE "In Love, In Love, In Love"
PERFORMER "Curtis Mayfield"
INDEX 00 03:25:45
FILE "05 – In Love, In Love, In Love.wav" WAVE
INDEX 01 00:00:00
TRACK 06 AUDIO
TITLE "You Are, You Are"
PERFORMER "Curtis Mayfield"
INDEX 00 04:21:32
FILE "06 – You Are, You Are.wav" WAVE
INDEX 01 00:00:00
Приватный:
Нет (DHT включён)
Размер:
732.28 Мб (767,851,540 байт) » файлов: 48
Участники:
0 раздают, 0 качают (0 участников всего)
Внешние участники:
2 раздают, 1 качают (3 участников всего) [ Обновить ]
Никого нет на раздаче - пишите личное сообщение M0p94ok
No seeders - write personal message to M0p94ok
03:00
13
Нет комментариев. Ваш будет первым!