Поиск

(Soul/Rhythm & Blues/Pop) [CD] Aretha Franklin with the Royal Philharmonic Orchestra - A Brand New Me - 2017, FLAC (image+.cue), lossless

(Soul/Rhythm & Blues/Pop) [CD] Aretha Franklin with the Royal Philharmonic Orchestra - A Brand New Me - 2017, FLAC (image+.cue), lossless
Треклист:
Aretha Franklin with the Royal Philharmonic Orchestra / A Brand New Me
Жанр: Soul/Rhythm & Blues/Pop
Носитель: CD
Страна-производитель диска (релиза): Russia
Год издания: 2017
Издатель (лейбл): Time Blues
Страна исполнителя (группы): USA
Аудиокодек: FLAC (*.flac)
Тип рипа: image+.cue
Битрейт аудио: lossless
Продолжительность: 51'44''
Источник (релизер): BluesHouse
Наличие сканов в содержимом раздачи: да
Треклист:
CD: Aretha Franklin - A Brand New Me: Aretha Franklin with the Royal Philharmonic Orchestra
Release-Date: 10.11.2017
01. Think [0:02:54.43]
02. Don't Play That Song (You Lied) [0:02:56.36]
03. I Say A Little Prayer [0:04:18.14]
04. Until You Come Back To Me (That's What I'm Gonna Do) [0:03:30.16]
05. A Brand New Me [0:04:19.10]
06. (You Make Me Feel Like) A Natural Woman [0:03:36.26]
07. Angel [0:04:42.13]
08. Border Song (Holy Moses) [0:03:24.01]
09. Let It Be [0:03:34.18]
10. People Get Ready [0:04:03.61]
11. Oh Me Oh My (I'm A Fool For You Baby) [0:04:18.09]
12. You're All I Need To Get By [0:03:59.10]
13. Son Of A Preacher Man [0:03:29.11]
14. Respect [0:02:37.08]
 
Лог создания рипа
Exact Audio Copy V1.3 from 2. September 2016
Отчёт EAC об извлечении, выполненном 27. декабря 2017, 1:35
Aretha Franklin / A Brand New Me: Aretha Franklin with the Royal Philharmonic Orchestra
Дисковод: PLEXTOR DVDR PX-891SA Adapter: 1 ID: 3
Режим чтения : Достоверность
Использование точного потока : Да
Отключение кэша аудио : Да
Использование указателей C2 : Нет
Коррекция смещения при чтении : 6
Способность читать области Lead-in и Lead-out : Нет
Заполнение пропущенных сэмплов тишиной : Да
Удаление блоков с тишиной в начале и конце : Нет
При вычислениях CRC использовались нулевые сэмплы : Да
Интерфейс : Встроенный Win32-интерфейс для Win NT/2000
Выходной формат : Пользовательский кодировщик
Выбранный битрейт : 768 kBit/s
Качество : Высокий
Добавление ID3-тега : Нет
Утилита сжатия : C:\Program Files (x86)\Exact Audio Copy\FLAC\FLAC.EXE
Дополнительные параметры : -6 -V -T "ARTIST=%artist%" -T "TITLE=%title%" -T "ALBUM=%albumtitle%" -T "DATE=%year%" -T "TRACKNUMBER=%tracknr%" -T "GENRE=%genre%" -T "COMMENT=%comment%" -T "BAND=%albuminterpret%" -T "ALBUMARTIST=%albuminterpret%" -T "COMPOSER=%composer%" %haslyrics%--tag-from-file=LYRICS="%lyricsfile%"%haslyrics% -T "DISCNUMBER=%cdnumber%" -T "TOTALDISCS=%totalcds%" -T "TOTALTRACKS=%numtracks%" %hascover%--picture="%coverfile%"%hascover% %source% -o %dest%
TOC извлечённого CD
Трек | Старт | Длительность | Начальный сектор | Конечный сектор
---------------------------------------------------------------------
1 | 0:00.00 | 2:54.43 | 0 | 13092
2 | 2:54.43 | 2:56.36 | 13093 | 26328
3 | 5:51.04 | 4:18.14 | 26329 | 45692
4 | 10:09.18 | 3:30.16 | 45693 | 61458
5 | 13:39.34 | 4:19.10 | 61459 | 80893
6 | 17:58.44 | 3:36.26 | 80894 | 97119
7 | 21:34.70 | 4:42.13 | 97120 | 118282
8 | 26:17.08 | 3:24.01 | 118283 | 133583
9 | 29:41.09 | 3:34.18 | 133584 | 149651
10 | 33:15.27 | 4:03.61 | 149652 | 167937
11 | 37:19.13 | 4:18.09 | 167938 | 187296
12 | 41:37.22 | 3:59.10 | 187297 | 205231
13 | 45:36.32 | 3:29.11 | 205232 | 220917
14 | 49:05.43 | 2:37.08 | 220918 | 232700
Характеристики диапазона извлечения и сообщения об ошибках
Выбранный диапазон
Имя файла K:\My Uploads-11\Aretha Franklin with the Royal Philharmonic Orchestra - A Brand New Me 2017 51'44''\Aretha Franklin - A Brand New Me- Aretha Franklin with the Royal Philharmonic Orchestra.wav
Пиковый уровень 89.4 %
Скорость извлечения 3.3 X
Качество диапазона 100.0 %
CRC теста D77DE87E
CRC копии D77DE87E
Копирование... OK
Ошибок не произошло
Конец отчёта
---- CUETools DB Plugin V2.1.6
[CTDB TOCID: 35tjvIxdhZNu9Oe8aU6t0y_1jrA-] found
Submit result: 35tjvIxdhZNu9Oe8aU6t0y_1jrA- has been confirmed
Track | CTDB Status
1 | (32/32) Accurately ripped
2 | (32/32) Accurately ripped
3 | (32/32) Accurately ripped
4 | (32/32) Accurately ripped
5 | (32/32) Accurately ripped
6 | (32/32) Accurately ripped
7 | (32/32) Accurately ripped
8 | (32/32) Accurately ripped
9 | (32/32) Accurately ripped
10 | (32/32) Accurately ripped
11 | (32/32) Accurately ripped
12 | (32/32) Accurately ripped
13 | (32/32) Accurately ripped
14 | (32/32) Accurately ripped
==== Контрольная сумма отчёта 2B5650B20220730B859E5BCD197BD83A889964B059EBD1F1FA324A752BCECE5D ====
 
Содержание индексной карты (.CUE)
REM GENRE Soul
REM DATE 2017
REM DISCID D70C1E0E
REM COMMENT "ExactAudioCopy v1.3"
PERFORMER "Aretha Franklin"
TITLE "A Brand New Me: Aretha Franklin with the Royal Philharmonic Orchestra"
REM COMPOSER ""
FILE "Aretha Franklin - A Brand New Me- Aretha Franklin with the Royal Philharmonic Orchestra.flac" WAVE
TRACK 01 AUDIO
TITLE "Think"
PERFORMER "Aretha Franklin"
REM COMPOSER ""
INDEX 01 00:00:00
TRACK 02 AUDIO
TITLE "Don't Play That Song (You Lied)"
PERFORMER "Aretha Franklin"
REM COMPOSER ""
INDEX 01 02:54:43
TRACK 03 AUDIO
TITLE "I Say A Little Prayer"
PERFORMER "Aretha Franklin"
REM COMPOSER ""
INDEX 01 05:51:04
TRACK 04 AUDIO
TITLE "Until You Come Back To Me (That's What I'm Gonna Do)"
PERFORMER "Aretha Franklin"
REM COMPOSER ""
INDEX 01 10:09:18
TRACK 05 AUDIO
TITLE "A Brand New Me"
PERFORMER "Aretha Franklin"
REM COMPOSER ""
INDEX 01 13:39:34
TRACK 06 AUDIO
TITLE "(You Make Me Feel Like) A Natural Woman"
PERFORMER "Aretha Franklin"
REM COMPOSER ""
INDEX 01 17:58:44
TRACK 07 AUDIO
TITLE "Angel"
PERFORMER "Aretha Franklin"
REM COMPOSER ""
INDEX 01 21:34:70
TRACK 08 AUDIO
TITLE "Border Song (Holy Moses)"
PERFORMER "Aretha Franklin"
REM COMPOSER ""
INDEX 01 26:17:08
TRACK 09 AUDIO
TITLE "Let It Be"
PERFORMER "Aretha Franklin"
REM COMPOSER ""
INDEX 01 29:41:09
TRACK 10 AUDIO
TITLE "People Get Ready"
PERFORMER "Aretha Franklin"
REM COMPOSER ""
INDEX 01 33:15:27
TRACK 11 AUDIO
TITLE "Oh Me Oh My (I'm A Fool For You Baby)"
PERFORMER "Aretha Franklin"
REM COMPOSER ""
INDEX 01 37:19:13
TRACK 12 AUDIO
TITLE "You're All I Need To Get By"
PERFORMER "Aretha Franklin"
REM COMPOSER ""
INDEX 01 41:37:22
TRACK 13 AUDIO
TITLE "Son Of A Preacher Man"
PERFORMER "Aretha Franklin"
REM COMPOSER ""
INDEX 01 45:36:32
TRACK 14 AUDIO
TITLE "Respect"
PERFORMER "Aretha Franklin"
REM COMPOSER ""
INDEX 01 49:05:43
 
Лог проверки качества
-----------------------
DON'T MODIFY THIS FILE
-----------------------
PERFORMER: auCDtect Task Manager, ver. 1.6.0 RC1 build 1.6.0.1
Copyright (c) 2008-2010 y-soft. All rights reserved
http://y-soft.org
ANALYZER: auCDtect: CD records authenticity detector, version 0.8.2
Copyright (c) 2004 Oleg Berngardt. All rights reserved.
Copyright (c) 2004 Alexander Djourik. All rights reserved.
FILE: Aretha Franklin - A Brand New Me- Aretha Franklin with the Royal Philharmonic Orchestra.flac
Size: 345770164 Hash: A33B7456AB315D1784E4730D890F2A3F Accuracy: -m0
Conclusion: CDDA 100%
Signature: E2426EC71F9500AD6A626F4924378DE1D492B43E
Приватный:
Нет (DHT включён)
Размер:
419.33 Мб (439,698,969 байт) » файлов: 11
Участники:
0 раздают, 0 качают (0 участников всего)
Внешние участники:
5 раздают, 2 качают (7 участников всего) [ Обновить ]
Есть вопросы - пишите личное сообщение пользователю M0p94ok.
15:08
81
Нет комментариев. Ваш будет первым!