Поиск

(Jazz-Funk, Soul, Easy Listening) [2CD] Ben Sidran - 2 Albums: Free In America (1976), The Doctor Is In (1977) (CD 2016/2017), FLAC (image+.cue), lossless

(Jazz-Funk, Soul, Easy Listening) [2CD] Ben Sidran - 2 Albums: Free In America (1976), The Doctor Is In (1977) (CD 2016/2017), FLAC (image+.cue), lossless
Треклист:
Ben Sidran - 2 Albums 1976,1977
Жанр: Jazz-Funk, Soul, Easy Listening
Носитель: 2CD
Страна-производитель диска (релиза): Japan
Год издания: 1976, 1977 (2016, 2017)
Издатель (лейбл): Arista (Sony Music Ent.)
Страна исполнителя (группы): USA
Аудиокодек: FLAC (*.flac)
Тип рипа: image+.cue
Битрейт аудио: lossless
Источник (релизер): собственный рип
Наличие сканов в содержимом раздачи: да
 
1976 Free In America 00:34:49
01. Feel Your Groove
02. After Midnight
03. Sunday Kind Of Love
04. Let's Make A Deal
05. Beg For It
06. New York State Of Mind
07. You Talk To Much
08. The Cuban Connection
09. Free In America
 
Лог создания рипа
Exact Audio Copy V1.3 from 2. September 2016
Отчёт EAC об извлечении, выполненном 27. декабря 2017, 19:06
Ben Sidran / Free In America
Дисковод: ASUS DRW-24B3ST Adapter: 1 ID: 0
Режим чтения : Достоверность
Использование точного потока : Да
Отключение кэша аудио : Да
Использование указателей C2 : Нет
Коррекция смещения при чтении : 6
Способность читать области Lead-in и Lead-out : Нет
Заполнение пропущенных сэмплов тишиной : Да
Удаление блоков с тишиной в начале и конце : Нет
При вычислениях CRC использовались нулевые сэмплы : Да
Интерфейс : Встроенный Win32-интерфейс для Win NT/2000
Выходной формат : Пользовательский кодировщик
Выбранный битрейт : 1024 kBit/s
Качество : Высокий
Добавление ID3-тега : Нет
Утилита сжатия : C:\Program Files (x86)\Exact Audio Copy\Flac\flac-1.3.2-win\win64\flac.exe
Дополнительные параметры : -V -8 -T "Date=%year%" -T "Genre=%genre%" %source%
TOC извлечённого CD
Трек | Старт | Длительность | Начальный сектор | Конечный сектор
---------------------------------------------------------------------
1 | 0:00.00 | 3:03.57 | 0 | 13781
2 | 3:03.57 | 3:32.68 | 13782 | 29749
3 | 6:36.50 | 4:31.65 | 29750 | 50139
4 | 11:08.40 | 3:29.03 | 50140 | 65817
5 | 14:37.43 | 3:38.42 | 65818 | 82209
6 | 18:16.10 | 4:40.63 | 82210 | 103272
7 | 22:56.73 | 3:15.35 | 103273 | 117932
8 | 26:12.33 | 4:30.42 | 117933 | 138224
9 | 30:43.00 | 4:05.50 | 138225 | 156649
Характеристики диапазона извлечения и сообщения об ошибках
Выбранный диапазон
Имя файла E:\Torrents\Ben Sidran - 2 Albums\1976 - Free In America\Ben Sidran - Free In America.wav
Пиковый уровень 99.9 %
Скорость извлечения 7.5 X
Качество диапазона 100.0 %
CRC теста 58CF5111
CRC копии 58CF5111
Копирование... OK
Ошибок не произошло
AccurateRip: сводка
Трек 1 отсутствует в базе данных
Трек 2 отсутствует в базе данных
Трек 3 отсутствует в базе данных
Трек 4 отсутствует в базе данных
Трек 5 отсутствует в базе данных
Трек 6 отсутствует в базе данных
Трек 7 отсутствует в базе данных
Трек 8 отсутствует в базе данных
Трек 9 отсутствует в базе данных
Ни одного трека нет в базе AccurateRip
Конец отчёта
==== Контрольная сумма отчёта 1B025A4DD688F15B2301FAD19C5A10E6A79CC15FF19ECF61116299D7310CD20F ====
 
Замер динамического диапазона (DR)
foobar2000 1.3.17 / Dynamic Range Meter 1.1.1
log date: 2017-12-27 19:07:53
--------------------------------------------------------------------------------
Analyzed: Ben Sidran / Free In America
--------------------------------------------------------------------------------
DR Peak RMS Duration Track
--------------------------------------------------------------------------------
DR8 0.00 dB -10.23 dB 3:04 01-Feel Your Groove
DR8 -0.06 dB -9.44 dB 3:33 02-After Midnight
DR11 0.00 dB -12.97 dB 4:32 03-Sunday Kind If Love
DR9 0.00 dB -10.83 dB 3:29 04-Let's Make A Deal
DR9 0.00 dB -10.76 dB 3:39 05-Beg For It (The Real Thing)
DR10 0.00 dB -12.81 dB 4:41 06-New York State Of Mind
DR8 0.00 dB -10.06 dB 3:15 07-You Talk Too Much
DR9 -0.04 dB -9.94 dB 4:31 08-The Cuban Connection
DR9 0.00 dB -11.16 dB 4:06 09-Free In America
--------------------------------------------------------------------------------
Number of tracks: 9
Official DR value: DR9
Samplerate: 44100 Hz
Channels: 2
Bits per sample: 16
Bitrate: 945 kbps
Codec: FLAC
================================================================================
 
1977 The Doctor Is In 00:38:58
01. Get It Yourself
02. Song For A Sucker Like You
03. Broad Daylight
04. One Way Grave
05. See You On The Other Side
06. Set Yourself Free
07. Silver's Serenade
08. Nobody's Fool
09. Charlie's Blues
10. Good Bye Pork Pie Hat
11. Be Nice
 
Лог создания рипа
Exact Audio Copy V1.3 from 2. September 2016
Отчёт EAC об извлечении, выполненном 28. декабря 2017, 8:38
Ben Sidran / The Doctor Is In
Дисковод: ASUS DRW-24B3ST Adapter: 1 ID: 0
Режим чтения : Достоверность
Использование точного потока : Да
Отключение кэша аудио : Да
Использование указателей C2 : Нет
Коррекция смещения при чтении : 6
Способность читать области Lead-in и Lead-out : Нет
Заполнение пропущенных сэмплов тишиной : Да
Удаление блоков с тишиной в начале и конце : Нет
При вычислениях CRC использовались нулевые сэмплы : Да
Интерфейс : Встроенный Win32-интерфейс для Win NT/2000
Выходной формат : Пользовательский кодировщик
Выбранный битрейт : 1024 kBit/s
Качество : Высокий
Добавление ID3-тега : Нет
Утилита сжатия : C:\Program Files (x86)\Exact Audio Copy\Flac\flac-1.3.2-win\win64\flac.exe
Дополнительные параметры : -V -8 -T "Date=%year%" -T "Genre=%genre%" %source%
TOC извлечённого CD
Трек | Старт | Длительность | Начальный сектор | Конечный сектор
---------------------------------------------------------------------
1 | 0:00.00 | 3:05.00 | 0 | 13874
2 | 3:05.00 | 4:23.45 | 13875 | 33644
3 | 7:28.45 | 3:33.45 | 33645 | 49664
4 | 11:02.15 | 3:41.58 | 49665 | 66297
5 | 14:43.73 | 4:40.10 | 66298 | 87307
6 | 19:24.08 | 4:30.27 | 87308 | 107584
7 | 23:54.35 | 5:13.03 | 107585 | 131062
8 | 29:07.38 | 3:05.30 | 131063 | 144967
9 | 32:12.68 | 2:01.32 | 144968 | 154074
10 | 34:14.25 | 3:39.40 | 154075 | 170539
11 | 37:53.65 | 1:04.10 | 170540 | 175349
Характеристики диапазона извлечения и сообщения об ошибках
Выбранный диапазон
Имя файла E:\Torrents\Ben Sidran - 2 Albums\1977 - The Doctor Is In\Ben Sidran - The Doctor Is In.wav
Пиковый уровень 99.9 %
Скорость извлечения 7.7 X
Качество диапазона 100.0 %
CRC теста 78E7FDE9
CRC копии 78E7FDE9
Копирование... OK
Ошибок не произошло
AccurateRip: сводка
Трек 1 : извлечено точно (доверие 1) [F2FD602B] (AR v2)
Трек 2 : извлечено точно (доверие 1) [460BBD29] (AR v2)
Трек 3 : извлечено точно (доверие 1) [9A6BC491] (AR v2)
Трек 4 : извлечено точно (доверие 1) [7D0884CA] (AR v2)
Трек 5 : извлечено точно (доверие 1) [5E6F9F08] (AR v2)
Трек 6 : извлечено точно (доверие 1) [C13705B8] (AR v2)
Трек 7 : извлечено точно (доверие 1) [EEE05EBC] (AR v2)
Трек 8 : извлечено точно (доверие 1) [246E810B] (AR v2)
Трек 9 : извлечено точно (доверие 1) [8BD8BA1D] (AR v2)
Трек 10 : извлечено точно (доверие 1) [EB641AE5] (AR v2)
Трек 11 : извлечено точно (доверие 1) [805BCB82] (AR v2)
Все треки извлечены точно
Конец отчёта
==== Контрольная сумма отчёта FEB4F919A7845D2A851B636AAB5600CED719700DCCC35B467B6D228D56FE4939 ====
 
Замер динамического диапазона (DR)
foobar2000 1.3.17 / Dynamic Range Meter 1.1.1
log date: 2017-12-28 08:41:23
--------------------------------------------------------------------------------
Analyzed: Ben Sidran / The Doctor Is In
--------------------------------------------------------------------------------
DR Peak RMS Duration Track
--------------------------------------------------------------------------------
DR10 0.00 dB -11.77 dB 3:05 01-Get It Yourself
DR10 0.00 dB -11.48 dB 4:24 02-Song For A Sucker Like You
DR11 -0.19 dB -14.18 dB 3:34 03-Broad Daylight
DR9 -0.03 dB -10.97 dB 3:42 04-One Way Grave
DR12 0.00 dB -13.91 dB 4:40 05-See You On The Other Side
DR11 -0.07 dB -13.31 dB 4:30 06-Set Yourself Free
DR12 0.00 dB -13.10 dB 5:13 07-Silver's Serenade
DR12 -0.06 dB -14.07 dB 3:05 08-Nobody's Fool
DR10 0.00 dB -12.01 dB 2:01 09-Charlie's Fool
DR14 -0.02 dB -16.40 dB 3:40 10-Good Bye Pork Pie Hat
DR16 -0.40 dB -19.78 dB 1:04 11-Be Nice
--------------------------------------------------------------------------------
Number of tracks: 11
Official DR value: DR11
Samplerate: 44100 Hz
Channels: 2
Bits per sample: 16
Bitrate: 908 kbps
Codec: FLAC
================================================================================
 
Об исполнителе
 
Состав
Ben Sidran - Piano, Vocals
James "Curley" Cooke - Guitar
Larry Carlton - Guitar
Phil Upchurch - Bass
Richard Davis - Bass
Gary Zappa - Bass
Bill Meeker - Drums
Tony Williams - Drums
Master Henry Gibson - Percussion
Richard Tee - Organ
David "Fathead" Newman - Saxophone
Sonny Seals - Saxophone
Woody Shaw - Trumpet
Blue Mitchell - Trumpet
Randy Brecker - Trumpet
Michael Brecker - Saxophone
Les Hooper - Strings
Jerry Alexander - Vocals
Gavin Christopher - Vocals
Приватный:
Нет (DHT включён)
Размер:
572.27 Мб (600,063,788 байт) » файлов: 27
Участники:
0 раздают, 0 качают (0 участников всего)
Внешние участники:
5 раздают, 1 качают (6 участников всего) [ Обновить ]
No seeders - write personal message to user M0p94ok. Нет сидеров - пишите личное сообщение пользователю M0p94ok.
15:08
81
Нет комментариев. Ваш будет первым!