Поиск

(Funk, Soul, Rock) [CD] Cory Wong - Cory Wong and the Green Screen Band - 2017, FLAC (tracks+.cue), lossless

(Funk, Soul, Rock) [CD] Cory Wong - Cory Wong and the Green Screen Band - 2017, FLAC (tracks+.cue), lossless
Треклист:
Cory Wong / Cory Wong and the Green Screen Band
Жанр: Funk, Soul, Rock
Носитель: CD
Год издания: 2017
Страна исполнителя (группы): USA
Аудиокодек: FLAC (*.flac)
Тип рипа: tracks+.cue
Битрейт аудио: lossless
Продолжительность: 00:38:44
Источник (релизер): strabalda
Наличие сканов в содержимом раздачи: нет
Треклист:
01. Work It Out (feat. Antwaun Stanley) (05:39)
02. Rubens (03:05)
03. McKinney (04:22)
04. Pleasin' (feat. Antwaun Stanley and Rebekah Bartels) (04:22)
05. Clouds (05:24)
06. Dial Up (03:33)
07. Sidestep (03:34)
08. Ketosis (02:55)
09. That's My Passport Photo (01:50)
10. Restoration (03:54)
 
Лог создания рипа
Exact Audio Copy V1.3 from 2. September 2016
EAC extraction logfile from 13. December 2017, 22:50
Cory Wong / Cory Wong and the Green Screen Band
Used drive : hp HLDS DVDRW GUD0N Adapter: 1 ID: 0
Read mode : Secure
Utilize accurate stream : Yes
Defeat audio cache : Yes
Make use of C2 pointers : No
Read offset correction : 102
Overread into Lead-In and Lead-Out : No
Fill up missing offset samples with silence : Yes
Delete leading and trailing silent blocks : No
Null samples used in CRC calculations : Yes
Used interface : Native Win32 interface for Win NT & 2000
Gap handling : Appended to previous track
Used output format : User Defined Encoder
Selected bitrate : 1024 kBit/s
Quality : High
Add ID3 tag : No
Command line compressor : D:\Program Files (x86)\Exact Audio Copy\Flac\flac.exe
Additional command line options : -8 -e -p -V -T "ARTIST=%artist%" -T "TITLE=%title%" -T "ALBUM=%albumtitle%" -T "DATE=%year%" -T "TRACKNUMBER=%tracknr%" -T "GENRE=%genre%" -T "PERFORMER=%albuminterpret%" -T "COMPOSER=%composer%" %haslyrics%--tag-from-file=LYRICS="%lyricsfile%"%haslyrics% -T "ALBUMARTIST=%albumartist%" -T "DISCNUMBER=%cdnumber%" -T "TOTALDISCS=%totalcds%" -T "TOTALTRACKS=%numtracks%" -T "COMMENT=%comment%" %source% -o %dest%
TOC of the extracted CD
Track | Start | Length | Start sector | End sector
---------------------------------------------------------
1 | 0:00.00 | 5:39.73 | 0 | 25497
2 | 5:39.73 | 3:05.65 | 25498 | 39437
3 | 8:45.63 | 4:22.53 | 39438 | 59140
4 | 13:08.41 | 4:22.59 | 59141 | 78849
5 | 17:31.25 | 5:24.29 | 78850 | 103178
6 | 22:55.54 | 3:33.70 | 103179 | 119223
7 | 26:29.49 | 3:34.03 | 119224 | 135276
8 | 30:03.52 | 2:55.42 | 135277 | 148443
9 | 32:59.19 | 1:50.32 | 148444 | 156725
10 | 34:49.51 | 3:54.20 | 156726 | 174295
Track 1
Filename D:\EACrips\Cory Wong - 2017 - Cory Wong and the Green Screen Band\01 - Work It Out (feat. Antwaun Stanley).wav
Pre-gap length 0:00:02.00
Peak level 100.0 %
Extraction speed 2.5 X
Track quality 99.9 %
Test CRC 17AD4F28
Copy CRC 17AD4F28
Track not present in AccurateRip database
Copy OK
Track 2
Filename D:\EACrips\Cory Wong - 2017 - Cory Wong and the Green Screen Band\02 - Rubens.wav
Peak level 100.0 %
Extraction speed 2.9 X
Track quality 100.0 %
Test CRC BFE4F447
Copy CRC BFE4F447
Track not present in AccurateRip database
Copy OK
Track 3
Filename D:\EACrips\Cory Wong - 2017 - Cory Wong and the Green Screen Band\03 - McKinney.wav
Peak level 100.0 %
Extraction speed 3.4 X
Track quality 100.0 %
Test CRC C18CA3E2
Copy CRC C18CA3E2
Track not present in AccurateRip database
Copy OK
Track 4
Filename D:\EACrips\Cory Wong - 2017 - Cory Wong and the Green Screen Band\04 - Pleasin' (feat. Antwaun Stanley and Rebekah Bartels).wav
Peak level 100.0 %
Extraction speed 3.6 X
Track quality 100.0 %
Test CRC 7A267355
Copy CRC 7A267355
Track not present in AccurateRip database
Copy OK
Track 5
Filename D:\EACrips\Cory Wong - 2017 - Cory Wong and the Green Screen Band\05 - Clouds.wav
Peak level 100.0 %
Extraction speed 3.4 X
Track quality 99.9 %
Test CRC 20B2C425
Copy CRC 20B2C425
Track not present in AccurateRip database
Copy OK
Track 6
Filename D:\EACrips\Cory Wong - 2017 - Cory Wong and the Green Screen Band\06 - Dial Up.wav
Peak level 100.0 %
Extraction speed 4.0 X
Track quality 100.0 %
Test CRC 17FB617B
Copy CRC 17FB617B
Track not present in AccurateRip database
Copy OK
Track 7
Filename D:\EACrips\Cory Wong - 2017 - Cory Wong and the Green Screen Band\07 - Sidestep.wav
Peak level 100.0 %
Extraction speed 4.1 X
Track quality 100.0 %
Test CRC E1E673B3
Copy CRC E1E673B3
Track not present in AccurateRip database
Copy OK
Track 8
Filename D:\EACrips\Cory Wong - 2017 - Cory Wong and the Green Screen Band\08 - Ketosis.wav
Peak level 100.0 %
Extraction speed 3.8 X
Track quality 100.0 %
Test CRC 6B2D8EDB
Copy CRC 6B2D8EDB
Track not present in AccurateRip database
Copy OK
Track 9
Filename D:\EACrips\Cory Wong - 2017 - Cory Wong and the Green Screen Band\09 - That's My Passport Photo.wav
Peak level 100.0 %
Extraction speed 3.5 X
Track quality 100.0 %
Test CRC 3283C491
Copy CRC 3283C491
Track not present in AccurateRip database
Copy OK
Track 10
Filename D:\EACrips\Cory Wong - 2017 - Cory Wong and the Green Screen Band\10 - Restoration.wav
Peak level 100.0 %
Extraction speed 4.3 X
Track quality 100.0 %
Test CRC DDA52357
Copy CRC DDA52357
Track not present in AccurateRip database
Copy OK
None of the tracks are present in the AccurateRip database
No errors occurred
End of status report
---- CUETools DB Plugin V2.1.6
[CTDB TOCID: _I6DJO7yav.fUNuf7JZs6jjeY6s-] disk not present in database
Submit result: _I6DJO7yav.fUNuf7JZs6jjeY6s- has been uploaded
==== Log checksum E4BA7DB01F2128ED8B13423309D08B3A7D06F6DF19C17440561A9D2628C67B09 ====
 
Содержание индексной карты (.CUE)
REM GENRE Funk
REM DATE 2017
REM DISCID 8009130A
REM COMMENT "ExactAudioCopy v1.3"
PERFORMER "Cory Wong"
TITLE "Cory Wong and the Green Screen Band"
REM COMPOSER ""
FILE "01 - Work It Out (feat. Antwaun Stanley).wav" WAVE
TRACK 01 AUDIO
TITLE "Work It Out (feat. Antwaun Stanley)"
PERFORMER "Cory Wong"
REM COMPOSER ""
INDEX 01 00:00:00
FILE "02 - Rubens.wav" WAVE
TRACK 02 AUDIO
TITLE "Rubens"
PERFORMER "Cory Wong"
REM COMPOSER ""
INDEX 01 00:00:00
FILE "03 - McKinney.wav" WAVE
TRACK 03 AUDIO
TITLE "McKinney"
PERFORMER "Cory Wong"
REM COMPOSER ""
INDEX 01 00:00:00
FILE "04 - Pleasin' (feat. Antwaun Stanley and Rebekah Bartels).wav" WAVE
TRACK 04 AUDIO
TITLE "Pleasin' (feat. Antwaun Stanley and Rebekah Bartels)"
PERFORMER "Cory Wong"
REM COMPOSER ""
INDEX 01 00:00:00
FILE "05 - Clouds.wav" WAVE
TRACK 05 AUDIO
TITLE "Clouds"
PERFORMER "Cory Wong"
REM COMPOSER ""
INDEX 01 00:00:00
FILE "06 - Dial Up.wav" WAVE
TRACK 06 AUDIO
TITLE "Dial Up"
PERFORMER "Cory Wong"
REM COMPOSER ""
INDEX 01 00:00:00
FILE "07 - Sidestep.wav" WAVE
TRACK 07 AUDIO
TITLE "Sidestep"
PERFORMER "Cory Wong"
REM COMPOSER ""
INDEX 01 00:00:00
FILE "08 - Ketosis.wav" WAVE
TRACK 08 AUDIO
TITLE "Ketosis"
PERFORMER "Cory Wong"
REM COMPOSER ""
INDEX 01 00:00:00
FILE "09 - That's My Passport Photo.wav" WAVE
TRACK 09 AUDIO
TITLE "That's My Passport Photo"
PERFORMER "Cory Wong"
REM COMPOSER ""
INDEX 01 00:00:00
FILE "10 - Restoration.wav" WAVE
TRACK 10 AUDIO
TITLE "Restoration"
PERFORMER "Cory Wong"
REM COMPOSER ""
INDEX 01 00:00:00
 
Лог проверки качества
-----------------------
DON'T MODIFY THIS FILE
-----------------------
PERFORMER: auCDtect Task Manager, ver. 1.6.0 RC1 build 1.6.0.1
Copyright (c) 2008-2010 y-soft. All rights reserved
http://y-soft.org
ANALYZER: auCDtect: CD records authenticity detector, version 0.8.2
Copyright (c) 2004 Oleg Berngardt. All rights reserved.
Copyright (c) 2004 Alexander Djourik. All rights reserved.
FILE: 10 - Restoration.flac
Size: 25810943 Hash: F2A1A1D02DC651CDE8F83EAA11E72E78 Accuracy: -m0
Conclusion: CDDA 100%
Signature: F0D60CD1DEE86750FE005BEE0BF93F3DFA4B87F6
FILE: 09 - That's My Passport Photo.flac
Size: 11299076 Hash: 71B1B4ECD0E5D2F2FA49F4C8C2CF7737 Accuracy: -m0
Conclusion: CDDA 100%
Signature: 6247845C9CD8094C1D87FEF3A1F70A3FCADFB9B2
FILE: 08 - Ketosis.flac
Size: 19554364 Hash: 10C5CA1358CC1020008A555A07AB4F06 Accuracy: -m0
Conclusion: CDDA 100%
Signature: B06D96D211957C014BFAB1E33A6F109A12902E7E
FILE: 07 - Sidestep.flac
Size: 24413786 Hash: 4C820DD4DE0EEF144370E0C7669ECF71 Accuracy: -m0
Conclusion: CDDA 100%
Signature: 9E273DD1BEC13BA68AAE730123D3ADBEF1097D07
FILE: 06 - Dial Up.flac
Size: 24185268 Hash: D3C185F8C114B1C4109FA317CBBA7506 Accuracy: -m0
Conclusion: CDDA 100%
Signature: 994DEC950EEA1B89C9B5FF9652278B5406BC8B1F
FILE: 05 - Clouds.flac
Size: 33455878 Hash: 75C42368F135F0031AE6741488201712 Accuracy: -m0
Conclusion: CDDA 100%
Signature: 4E6524F58BF40990ED8ACAC06B5087DE73D09F90
FILE: 04 - Pleasin' (feat. Antwaun Stanley and Rebekah Bartels).flac
Size: 28454658 Hash: 63F1870FCEB57FD997A128989338325F Accuracy: -m0
Conclusion: CDDA 100%
Signature: 8455E9A826760906B2AFB16344DA5A7EAA08C4EC
FILE: 03 - McKinney.flac
Size: 23207748 Hash: AE857AA7D09E9C2D76F93BE078B54E46 Accuracy: -m0
Conclusion: CDDA 100%
Signature: FEE5C8AAA81A6F8B8EF8A797DBF159D041CCF933
FILE: 02 - Rubens.flac
Size: 18332904 Hash: E92A4AD8B53AB34A13DE9871BB9D4677 Accuracy: -m0
Conclusion: CDDA 100%
Signature: 7372251C7D13BC9D6E5540EDC04E944EAD12F2FE
FILE: 01 - Work It Out (feat. Antwaun Stanley).flac
Size: 39894299 Hash: EB50041ABE14EED9F6758D9BABBF2432 Accuracy: -m0
Conclusion: CDDA 100%
Signature: 591E7E584674E2348D0441B23F15BD3CCC7FA738
 
Об исполнителе (группе)
Приватный:
Да (DHT отключён)
Размер:
237.17 Мб (248,695,157 байт) » файлов: 15
Участники:
0 раздают, 0 качают (0 участников всего)
Внешние участники:
7 раздают, 2 качают (9 участников всего) [ Обновить ]
Есть вопросы - пишите личное сообщение пользователю M0p94ok.
15:07
60
Нет комментариев. Ваш будет первым!