Поиск

(Fusion, Jazz-Funk) [CD] Herbie Hancock - Dancin' Grooves (1973-1983) - 1999 (Japan Edition), FLAC (tracks+.cue), lossless

(Fusion, Jazz-Funk) [CD] Herbie Hancock - Dancin' Grooves (1973-1983) - 1999 (Japan Edition), FLAC (tracks+.cue), lossless
Треклист:
Herbie Hancock - Dancin' Grooves
Жанр: Fusion, Jazz-Funk
Носитель: CD
Страна-производитель диска (релиза): Япония
Год издания: 1999
Издатель (лейбл): SME Records
Номер по каталогу: SRCS 8856
Аудиокодек: FLAC (*.flac)
Тип рипа: tracks+.cue
Битрейт аудио: lossless
Продолжительность: 56:12
Источник (релизер): What.CD
Наличие сканов в содержимом раздачи: нет
Треклист:
01. Chameleon (2:52)
02. Watermelon Man (2:56)
03. Sly (2:45)
04. Butterfly (3:06)
05. Spank-A-Lee (2:36)
06. Actual Proof (2:04)
07. Doin' It (3:22)
08. Hang Up Your Hang Ups (3:17)
09. Spider (3:26)
10. I Thought It Was You (3:40)
11. Sunlight (3:45)
12. Tell Everybody (3:56)
13. You Bet Your Love (3:59)
14. Chameleon (1983 Re-Mix UK 12-Inch Only Version) (14:28)
 
Лог создания рипа
Exact Audio Copy V1.0 beta 4 from 7. December 2014
EAC extraction logfile from 7. March 2015, 2:28
Herbie Hancock / Dancin' Grooves
Used drive : ASUS DRW-24F1ST a Adapter: 3 ID: 0
Read mode : Secure
Utilize accurate stream : Yes
Defeat audio cache : Yes
Make use of C2 pointers : No
Read offset correction : 6
Overread into Lead-In and Lead-Out : No
Fill up missing offset samples with silence : Yes
Delete leading and trailing silent blocks : No
Null samples used in CRC calculations : Yes
Used interface : Installed external ASPI interface
Gap handling : Appended to previous track
Used output format : User Defined Encoder
Selected bitrate : 1024 kBit/s
Quality : High
Add ID3 tag : No
Command line compressor : C:\Program Files (x86)\Exact Audio Copy\FLAC\FLAC.EXE
Additional command line options : -8 -V -T "ARTIST=%artist%" -T "TITLE=%title%" -T "ALBUM=%albumtitle%" -T "DATE=%year%" -T "TRACKNUMBER=%tracknr%" -T "GENRE=%genre%" -T "PERFORMER=%albuminterpret%" -T "COMPOSER=%composer%" %haslyrics%--tag-from-file=LYRICS="%lyricsfile%"%haslyrics% -T "ALBUMARTIST=%albumartist%" -T "DISCNUMBER=%cdnumber%" -T "TOTALDISCS=%totalcds%" -T "TOTALTRACKS=%numtracks%" -T "COMMENT=%comment%" %source% -o %dest%
TOC of the extracted CD
Track | Start | Length | Start sector | End sector
---------------------------------------------------------
1 | 0:00.00 | 2:51.42 | 0 | 12866
2 | 2:51.42 | 2:55.45 | 12867 | 26036
3 | 5:47.12 | 2:45.23 | 26037 | 38434
4 | 8:32.35 | 3:06.17 | 38435 | 52401
5 | 11:38.52 | 2:36.33 | 52402 | 64134
6 | 14:15.10 | 2:04.30 | 64135 | 73464
7 | 16:19.40 | 3:21.52 | 73465 | 88591
8 | 19:41.17 | 3:17.37 | 88592 | 103403
9 | 22:58.54 | 3:26.13 | 103404 | 118866
10 | 26:24.67 | 3:39.58 | 118867 | 135349
11 | 30:04.50 | 3:45.00 | 135350 | 152224
12 | 33:49.50 | 3:55.57 | 152225 | 169906
13 | 37:45.32 | 3:58.48 | 169907 | 187804
14 | 41:44.05 | 14:27.50 | 187805 | 252879
Track 1
Filename C:\Program Files (x86)\Exact Audio Copy\Flac\Herbie Hancock - Dancin' Grooves\01 - Chameleon.wav
Pre-gap length 0:00:02.00
Peak level 100.0 %
Extraction speed 4.1 X
Track quality 100.0 %
Test CRC CD4DB1F6
Copy CRC CD4DB1F6
Accurately ripped (confidence 1) [3A7B3A1E] (AR v2)
Copy OK
Track 2
Filename C:\Program Files (x86)\Exact Audio Copy\Flac\Herbie Hancock - Dancin' Grooves\02 - Watermelon Man.wav
Peak level 100.0 %
Extraction speed 3.4 X
Track quality 99.9 %
Test CRC 754C70E5
Copy CRC 754C70E5
Accurately ripped (confidence 1) [3B9ED531] (AR v2)
Copy OK
Track 3
Filename C:\Program Files (x86)\Exact Audio Copy\Flac\Herbie Hancock - Dancin' Grooves\03 - Sly.wav
Peak level 100.0 %
Extraction speed 3.5 X
Track quality 99.9 %
Test CRC 4F3F2D8A
Copy CRC 4F3F2D8A
Accurately ripped (confidence 1) [F33DFCD9] (AR v2)
Copy OK
Track 4
Filename C:\Program Files (x86)\Exact Audio Copy\Flac\Herbie Hancock - Dancin' Grooves\04 - Butterfly.wav
Peak level 100.0 %
Extraction speed 3.9 X
Track quality 99.9 %
Test CRC EF6241F9
Copy CRC EF6241F9
Accurately ripped (confidence 1) [70992B29] (AR v2)
Copy OK
Track 5
Filename C:\Program Files (x86)\Exact Audio Copy\Flac\Herbie Hancock - Dancin' Grooves\05 - Spank-a-lee.wav
Peak level 100.0 %
Extraction speed 5.2 X
Track quality 100.0 %
Test CRC E338C552
Copy CRC E338C552
Accurately ripped (confidence 1) [ECB7B8A4] (AR v2)
Copy OK
Track 6
Filename C:\Program Files (x86)\Exact Audio Copy\Flac\Herbie Hancock - Dancin' Grooves\06 - Actual Proof.wav
Peak level 100.0 %
Extraction speed 5.1 X
Track quality 100.0 %
Test CRC 28D1540F
Copy CRC 28D1540F
Accurately ripped (confidence 1) [B173A5E1] (AR v2)
Copy OK
Track 7
Filename C:\Program Files (x86)\Exact Audio Copy\Flac\Herbie Hancock - Dancin' Grooves\07 - Doin' It.wav
Peak level 100.0 %
Extraction speed 5.8 X
Track quality 100.0 %
Test CRC D0479892
Copy CRC D0479892
Accurately ripped (confidence 1) [BB7C3DC7] (AR v2)
Copy OK
Track 8
Filename C:\Program Files (x86)\Exact Audio Copy\Flac\Herbie Hancock - Dancin' Grooves\08 - Hang Up Your Hang Ups.wav
Peak level 100.0 %
Extraction speed 6.1 X
Track quality 100.0 %
Test CRC 587C232D
Copy CRC 587C232D
Accurately ripped (confidence 1) [AA02841E] (AR v2)
Copy OK
Track 9
Filename C:\Program Files (x86)\Exact Audio Copy\Flac\Herbie Hancock - Dancin' Grooves\09 - Spider.wav
Peak level 100.0 %
Extraction speed 4.9 X
Track quality 99.9 %
Test CRC CEFF9CC3
Copy CRC CEFF9CC3
Accurately ripped (confidence 1) [40CE42FC] (AR v2)
Copy OK
Track 10
Filename C:\Program Files (x86)\Exact Audio Copy\Flac\Herbie Hancock - Dancin' Grooves\10 - I Thought It Was You.wav
Peak level 100.0 %
Extraction speed 5.2 X
Track quality 99.9 %
Test CRC 5DECD60F
Copy CRC 5DECD60F
Accurately ripped (confidence 1) [E66920FB] (AR v2)
Copy OK
Track 11
Filename C:\Program Files (x86)\Exact Audio Copy\Flac\Herbie Hancock - Dancin' Grooves\11 - Sunlight.wav
Peak level 100.0 %
Extraction speed 7.0 X
Track quality 100.0 %
Test CRC 78D72B32
Copy CRC 78D72B32
Accurately ripped (confidence 1) [D406E434] (AR v2)
Copy OK
Track 12
Filename C:\Program Files (x86)\Exact Audio Copy\Flac\Herbie Hancock - Dancin' Grooves\12 - Tell Everybody.wav
Peak level 100.0 %
Extraction speed 7.3 X
Track quality 100.0 %
Test CRC 5B256A42
Copy CRC 5B256A42
Accurately ripped (confidence 1) [11C2A1D3] (AR v2)
Copy OK
Track 13
Filename C:\Program Files (x86)\Exact Audio Copy\Flac\Herbie Hancock - Dancin' Grooves\13 - You Bet Your Love.wav
Peak level 100.0 %
Extraction speed 7.6 X
Track quality 100.0 %
Test CRC 9D456B79
Copy CRC 9D456B79
Accurately ripped (confidence 1) [693D5A4D] (AR v2)
Copy OK
Track 14
Filename C:\Program Files (x86)\Exact Audio Copy\Flac\Herbie Hancock - Dancin' Grooves\14 - Chameleon (1983 Remix).wav
Pre-gap length 0:00:01.13
Peak level 100.0 %
Extraction speed 9.1 X
Track quality 100.0 %
Test CRC AB6EEF96
Copy CRC AB6EEF96
Accurately ripped (confidence 1) [25A0B802] (AR v2)
Copy OK
All tracks accurately ripped
No errors occurred
End of status report
==== Log checksum D775CA3C07716EB41C2880C2F9BFC29C4B68E8FF42D7E7CE18503564FCCAB21B ====
 
Содержание индексной карты (.CUE)
REM GENRE Jazz
REM DATE 1999
REM DISCID B40D2B0E
REM COMMENT "ExactAudioCopy v1.0b4"
PERFORMER "Herbie Hancock"
TITLE "Dancin' Grooves"
FILE "01 - Chameleon.wav" WAVE
TRACK 01 AUDIO
TITLE "Chameleon"
PERFORMER "Herbie Hancock"
INDEX 01 00:00:00
FILE "02 - Watermelon Man.wav" WAVE
TRACK 02 AUDIO
TITLE "Watermelon Man"
PERFORMER "Herbie Hancock"
INDEX 01 00:00:00
FILE "03 - Sly.wav" WAVE
TRACK 03 AUDIO
TITLE "Sly"
PERFORMER "Herbie Hancock"
INDEX 01 00:00:00
FILE "04 - Butterfly.wav" WAVE
TRACK 04 AUDIO
TITLE "Butterfly"
PERFORMER "Herbie Hancock"
INDEX 01 00:00:00
FILE "05 - Spank-A-Lee.wav" WAVE
TRACK 05 AUDIO
TITLE "Spank-A-Lee"
PERFORMER "Herbie Hancock"
INDEX 01 00:00:00
FILE "06 - Actual Proof.wav" WAVE
TRACK 06 AUDIO
TITLE "Actual Proof"
PERFORMER "Herbie Hancock"
INDEX 01 00:00:00
FILE "07 - Doin' It.wav" WAVE
TRACK 07 AUDIO
TITLE "Doin' It"
PERFORMER "Herbie Hancock"
INDEX 01 00:00:00
FILE "08 - Hang Up Your Hang Ups.wav" WAVE
TRACK 08 AUDIO
TITLE "Hang Up Your Hang Ups"
PERFORMER "Herbie Hancock"
INDEX 01 00:00:00
FILE "09 - Spider.wav" WAVE
TRACK 09 AUDIO
TITLE "Spider"
PERFORMER "Herbie Hancock"
INDEX 01 00:00:00
FILE "10 - I Thought It Was You.wav" WAVE
TRACK 10 AUDIO
TITLE "I Thought It Was You"
PERFORMER "Herbie Hancock"
INDEX 01 00:00:00
FILE "11 - Sunlight.wav" WAVE
TRACK 11 AUDIO
TITLE "Sunlight"
PERFORMER "Herbie Hancock"
INDEX 01 00:00:00
FILE "12 - Tell Everybody.wav" WAVE
TRACK 12 AUDIO
TITLE "Tell Everybody"
PERFORMER "Herbie Hancock"
INDEX 01 00:00:00
FILE "13 - You Bet Your Love.wav" WAVE
TRACK 13 AUDIO
TITLE "You Bet Your Love"
PERFORMER "Herbie Hancock"
INDEX 01 00:00:00
TRACK 14 AUDIO
TITLE "Chameleon (1983 Re-Mix UK 12-Inch Only Version)"
PERFORMER "Herbie Hancock"
INDEX 00 03:57:38
FILE "14 - Chameleon (1983 Re-Mix UK 12-Inch Only Version).wav" WAVE
INDEX 01 00:00:00
 
Отчет CUETools
[CUETools log; Date: 12.12.2017 18:49:25; Version: 2.1.5]
[CTDB TOCID: 53FHjpqA5YlQ7tp8FCoX2bVUyTQ-] found.
Track | CTDB Status
1 | (8/8) Accurately ripped
2 | (8/8) Accurately ripped
3 | (8/8) Accurately ripped
4 | (8/8) Accurately ripped
5 | (8/8) Accurately ripped
6 | (8/8) Accurately ripped
7 | (8/8) Accurately ripped
8 | (8/8) Accurately ripped
9 | (8/8) Accurately ripped
10 | (8/8) Accurately ripped
11 | (8/8) Accurately ripped
12 | (8/8) Accurately ripped
13 | (8/8) Accurately ripped
14 | (8/8) Accurately ripped
[AccurateRip ID: 00168713-00f717ea-b40d2b0e] found.
Track [ CRC | V2 ] Status
01 [4c1efd0b|3a7b3a1e] (0+2/2) Accurately ripped
02 [8f77df8b|3b9ed531] (0+2/2) Accurately ripped
03 [58f0de7a|f33dfcd9] (0+2/2) Accurately ripped
04 [7168d77a|70992b29] (0+2/2) Accurately ripped
05 [c638d2f9|ecb7b8a4] (0+2/2) Accurately ripped
06 [3f51accb|b173a5e1] (0+2/2) Accurately ripped
07 [6f476095|bb7c3dc7] (0+2/2) Accurately ripped
08 [1c8e6f37|aa02841e] (0+2/2) Accurately ripped
09 [8cbb8005|40ce42fc] (0+2/2) Accurately ripped
10 [6b789858|e66920fb] (0+2/2) Accurately ripped
11 [4dacc0ac|d406e434] (0+2/2) Accurately ripped
12 [0fcb6d00|11c2a1d3] (0+2/2) Accurately ripped
13 [b6baae56|693d5a4d] (0+2/2) Accurately ripped
14 [d5743aeb|25a0b802] (0+2/2) Accurately ripped
Track Peak [ CRC32 ] [W/O NULL] [ LOG ]
-- 100,0 [ABC16054] [8A302CDE]
01 99,9 [CD4DB1F6] [5527FC9E] CRC32
02 99,9 [754C70E5] [44BB8A34] CRC32
03 100,0 [4F3F2D8A] [3A5D78E5] CRC32
04 100,0 [EF6241F9] [7D985256] CRC32
05 100,0 [E338C552] [17B2100C] CRC32
06 100,0 [28D1540F] [B2FF747D] CRC32
07 100,0 [D0479892] [2F476599] CRC32
08 100,0 [587C232D] [DBE20B58] CRC32
09 100,0 [CEFF9CC3] [857953A5] CRC32
10 100,0 [5DECD60F] [6EE40CC0] CRC32
11 100,0 [78D72B32] [02D2C359] CRC32
12 100,0 [5B256A42] [8966DAB5] CRC32
13 100,0 [9D456B79] [AC71244A] CRC32
14 100,0 [AB6EEF96] [D61204ED] CRC32
Приватный:
Нет (DHT включён)
Размер:
346.71 Мб (363,552,321 байт) » файлов: 22
Участники:
0 раздают, 0 качают (0 участников всего)
Внешние участники:
2 раздают, 1 качают (3 участников всего) [ Обновить ]
Есть вопросы - пишите личное сообщение пользователю M0p94ok.
15:06
58
Нет комментариев. Ваш будет первым!