Поиск

(Soul, R&B) [CD] Sam Cooke - Wonderful World - 1990, FLAC (image+.cue), lossless

(Soul, R&B) [CD] Sam Cooke - Wonderful World - 1990, FLAC (image+.cue), lossless
Треклист:
Sam Cooke - Wonderful World
Жанр: Soul, R&B
Страна-производитель диска: EU
Год издания диска: 1990
Издатель (лейбл): Universe
Номер по каталогу: UN 1006
Страна: USA
Аудиокодек: FLAC (*.flac)
Тип рипа: image+.cue
Битрейт аудио: lossless
Продолжительность: 00:39:23
Источник (релизер): alexpika
Наличие сканов в содержимом раздачи: да
Треклист:
01. Wonderful World 02:05
02. Good Times 02:28
03. Cupid 02:30
04. Everybody Loves To Chaa Chaa 02:38
05. Only Sixteen 01:54
06. Chain Gang 02:34
07. I'll Come Running Back To You 02:14
08. Love Will Find A Way 02:13
09. Nothing Can Change This Love 02:37
10. Twisting The Noght Away 02:40
11. When A Boy Falls In Love 02:33
12. You Send Me 02:46
13. Just For You 02:21
14. Win Your Love For Me 02:55
15. Another Saturday Night 02:24
16. Having A Party 02:27
 
Лог создания рипа
Exact Audio Copy V1.0 beta 3 from 29. August 2011
EAC extraction logfile from 14. December 2016, 8:49
Sam Cooke / Wonderful World
Used drive : TSSTcorpCDDVDW SH-216DB Adapter: 0 ID: 0
Read mode : Secure
Utilize accurate stream : Yes
Defeat audio cache : Yes
Make use of C2 pointers : No
Read offset correction : 6
Overread into Lead-In and Lead-Out : No
Fill up missing offset samples with silence : Yes
Delete leading and trailing silent blocks : No
Null samples used in CRC calculations : Yes
Used interface : Native Win32 interface for Win NT & 2000
Used output format : User Defined Encoder
Selected bitrate : 1024 kBit/s
Quality : High
Add ID3 tag : No
Command line compressor : C:\Program Files (x86)\Exact Audio Copy\Flac\flac.exe
Additional command line options : -V -8 -T "Date=%year%" -T "Genre=%genre%" %source%
TOC of the extracted CD
Track | Start | Length | Start sector | End sector
---------------------------------------------------------
1 | 0:00.00 | 2:07.00 | 0 | 9524
2 | 2:07.00 | 2:29.25 | 9525 | 20724
3 | 4:36.25 | 2:30.25 | 20725 | 31999
4 | 7:06.50 | 2:36.00 | 32000 | 43699
5 | 9:42.50 | 1:55.50 | 43700 | 52374
6 | 11:38.25 | 2:33.62 | 52375 | 63911
7 | 14:12.12 | 2:13.63 | 63912 | 73949
8 | 16:26.00 | 2:16.50 | 73950 | 84199
9 | 18:42.50 | 2:38.25 | 84200 | 96074
10 | 21:21.00 | 2:41.00 | 96075 | 108149
11 | 24:02.00 | 2:30.62 | 108150 | 119461
12 | 26:32.62 | 2:46.38 | 119462 | 131949
13 | 29:19.25 | 2:21.25 | 131950 | 142549
14 | 31:40.50 | 2:54.00 | 142550 | 155599
15 | 34:34.50 | 2:23.25 | 155600 | 166349
16 | 36:58.00 | 2:25.50 | 166350 | 177274
Range status and errors
Selected range
Filename L:\Private\My Audio Ripps\ CD - RIPS\Sam Cook\Sam Cooke - Wonderful World.wav
Peak level 100.0 %
Extraction speed 2.7 X
Range quality 100.0 %
Test CRC A6B66E83
Copy CRC A6B66E83
Copy OK
No errors occurred
AccurateRip summary
Track 1 accurately ripped (confidence 7) [7BF0BEC4] (AR v2)
Track 2 accurately ripped (confidence 6) [DFCFD672] (AR v2)
Track 3 accurately ripped (confidence 6) [955A714D] (AR v2)
Track 4 accurately ripped (confidence 7) [D891E023] (AR v2)
Track 5 accurately ripped (confidence 6) [187CB815] (AR v2)
Track 6 accurately ripped (confidence 6) [614862B4] (AR v2)
Track 7 accurately ripped (confidence 7) [EEEA0DC3] (AR v2)
Track 8 accurately ripped (confidence 6) [E66596F7] (AR v2)
Track 9 accurately ripped (confidence 6) [86EF13D0] (AR v2)
Track 10 accurately ripped (confidence 8) [A10E6EEC] (AR v2)
Track 11 accurately ripped (confidence 6) [E0A9A2A4] (AR v2)
Track 12 accurately ripped (confidence 6) [4B943AFB] (AR v2)
Track 13 accurately ripped (confidence 6) [DC8A0B86] (AR v2)
Track 14 accurately ripped (confidence 7) [DE6DD223] (AR v2)
Track 15 accurately ripped (confidence 6) [2F05D11D] (AR v2)
Track 16 accurately ripped (confidence 6) [B5C743FC] (AR v2)
All tracks accurately ripped
End of status report
==== Log checksum 20004225395FC443FA69DE6525970EF52036720EDC5434DE6038820647D4FCB0 ====
 
Содержание индексной карты (.CUE)
REM GENRE "Pop Rock"
REM DATE 1995
REM DISCID D5093B10
REM COMMENT "ExactAudioCopy v1.0b3"
PERFORMER "Sam Cooke"
TITLE "Wonderful World"
FILE "Sam Cooke - Wonderful World.flac" WAVE
TRACK 01 AUDIO
TITLE "Wonderful World"
PERFORMER "Sam Cooke"
INDEX 01 00:00:00
TRACK 02 AUDIO
TITLE "Good Times"
PERFORMER "Sam Cooke"
INDEX 00 02:04:60
INDEX 01 02:07:00
TRACK 03 AUDIO
TITLE "Cupid"
PERFORMER "Sam Cooke"
INDEX 00 04:34:12
INDEX 01 04:36:25
TRACK 04 AUDIO
TITLE "Everybody Loves To Cha Cha"
PERFORMER "Sam Cooke"
INDEX 00 07:05:00
INDEX 01 07:06:50
TRACK 05 AUDIO
TITLE "Only Sixteen"
PERFORMER "Sam Cooke"
INDEX 00 09:41:00
INDEX 01 09:42:50
TRACK 06 AUDIO
TITLE "Chain Gang"
PERFORMER "Sam Cooke"
INDEX 00 11:36:42
INDEX 01 11:38:25
TRACK 07 AUDIO
TITLE "I'll Come Running Back To You"
PERFORMER "Sam Cooke"
INDEX 00 14:10:37
INDEX 01 14:12:12
TRACK 08 AUDIO
TITLE "Love Will Find A Way"
PERFORMER "Sam Cooke"
INDEX 00 16:23:60
INDEX 01 16:26:00
TRACK 09 AUDIO
TITLE "Nothing Can Change This Love"
PERFORMER "Sam Cooke"
INDEX 00 18:40:37
INDEX 01 18:42:50
TRACK 10 AUDIO
TITLE "Twisting The Night Away"
PERFORMER "Sam Cooke"
INDEX 00 21:18:57
INDEX 01 21:21:00
TRACK 11 AUDIO
TITLE "When A Boy Falls In Love"
PERFORMER "Sam Cooke"
INDEX 00 24:00:12
INDEX 01 24:02:00
TRACK 12 AUDIO
TITLE "You Send Me"
PERFORMER "Sam Cooke"
INDEX 00 26:31:07
INDEX 01 26:32:62
TRACK 13 AUDIO
TITLE "Just For You"
PERFORMER "Sam Cooke"
INDEX 00 29:17:07
INDEX 01 29:19:25
TRACK 14 AUDIO
TITLE "Win Your Love For Me"
PERFORMER "Sam Cooke"
INDEX 00 31:39:00
INDEX 01 31:40:50
TRACK 15 AUDIO
TITLE "Another Saturday Night"
PERFORMER "Sam Cooke"
INDEX 00 34:33:00
INDEX 01 34:34:50
TRACK 16 AUDIO
TITLE "Having A Party"
PERFORMER "Sam Cooke"
INDEX 00 36:56:22
INDEX 01 36:58:00
 
Лог проверки качества
-----------------------
DON'T MODIFY THIS FILE
-----------------------
PERFORMER: auCDtect Task Manager, ver. 1.5.1RC4 build 1.5.1.5
Copyright (c) 2008-2010 y-soft. All rights reserved
http://y-soft.org
ANALYZER: auCDtect: CD records authenticity detector, version 0.8.2
Copyright (c) 2004 Oleg Berngardt. All rights reserved.
Copyright (c) 2004 Alexander Djourik. All rights reserved.
FILE: Sam Cooke - Wonderful World.flac
Size: 218282993 Hash: 9A442ABF0076F9A86C91EC43DF43469D Accuracy: -m0
Conclusion: CDDA 100%
Signature: 3E91CB4A7E5F70A1185D5671E31712AFF494BCC4
 
Замер динамического диапазона
foobar2000 1.3.9 / Замер динамического диапазона (DR) 1.1.1
Дата отчёта: 2016-12-21 11:28:05
--------------------------------------------------------------------------------
Анализ: Sam Cooke / Wonderful World
--------------------------------------------------------------------------------
DR Пики RMS Продолжительность трека
--------------------------------------------------------------------------------
DR12 -0.27 дБ -13.57 дБ 2:07 1-Wonderful World
DR10 -0.09 дБ -11.45 дБ 2:29 2-Good Times
DR12 -0.20 дБ -13.84 дБ 2:30 3-Cupid
DR12 -0.28 дБ -14.87 дБ 2:36 4-Everybody Loves To Cha Cha
DR11 -0.28 дБ -13.17 дБ 1:56 5-Only Sixteen
DR11 -0.25 дБ -13.80 дБ 2:34 6-Chain Gang
DR12 -0.06 дБ -13.87 дБ 2:14 7-I'll Come Running Back To You
DR10 -0.22 дБ -12.76 дБ 2:17 8-Love Will Find A Way
DR12 -0.02 дБ -13.88 дБ 2:38 9-Nothing Can Change This Love
DR12 -0.40 дБ -13.36 дБ 2:41 10-Twisting The Night Away
DR12 0.00 дБ -15.11 дБ 2:31 11-When A Boy Falls In Love
DR12 -0.22 дБ -13.61 дБ 2:47 12-You Send Me
DR10 -0.07 дБ -11.19 дБ 2:21 13-Just For You
DR10 -0.05 дБ -11.52 дБ 2:54 14-Win Your Love For Me
DR13 -0.40 дБ -14.29 дБ 2:23 15-Another Saturday Night
DR13 -0.16 дБ -15.05 дБ 2:26 16-Having A Party
--------------------------------------------------------------------------------
Количество треков: 16
Реальные значения DR: DR11
Частота: 44100 Гц
Каналов: 2
Разрядность: 16
Битрейт: 739 кбит/с
Кодек: FLAC
================================================================================
Доп. информация
Приватный:
Нет (DHT включён)
Размер:
209.04 Мб (219,191,338 байт) » файлов: 7
Участники:
0 раздают, 0 качают (0 участников всего)
Внешние участники:
2 раздают, 1 качают (3 участников всего) [ Обновить ]
Есть вопросы - пишите личное сообщение пользователю M0p94ok.
15:06
107
Нет комментариев. Ваш будет первым!