Поиск

(Jazz-Funk, Bayou Funk, Funk, Soul) [WEB] Cash McCall - Omega Man - 1974, FLAC (tracks), lossless

(Jazz-Funk, Bayou Funk, Funk, Soul) [WEB] Cash McCall - Omega Man - 1974, FLAC (tracks), lossless
Треклист:
Cash McCall / Omega Man
Жанр: Jazz-Funk, Bayou Funk, Funk, Soul
Носитель: WEB
Год издания: 1974
Издатель (лейбл): Paula Records
Номер по каталогу:
Страна исполнителя (группы): USA
Аудиокодек: FLAC (*.flac)
Тип рипа: tracks
Битрейт аудио: lossless
Продолжительность: 00:35:15
Источник (релизер): qobuz
Наличие сканов в содержимом раздачи: Front
Треклист:
01. Omega Man
02. Why Can´t We Live Together
03. Love Me Baby
04. Junkie for Your Love
05. Mojo Woman
06. Hard Attack
07. Hard Head (Makes a Sore Behind)
08. I Need Your Love
09. New Orleans
10. Blues 99
 
DR Log
foobar2000 1.1.10 / Dynamic Range Meter 1.1.1
log date: 2017-12-31 23:26:10
--------------------------------------------------------------------------------
Analyzed: Cash McCall / Omega Man
--------------------------------------------------------------------------------
DR Peak RMS Duration Track
--------------------------------------------------------------------------------
DR10 -1.17 dB -12.68 dB 2:42 ?-Omega Man
DR10 -1.18 dB -13.38 dB 4:58 ?-Why Can´t We Live Together
DR10 -1.17 dB -13.03 dB 3:01 ?-Love Me Baby
DR11 -1.18 dB -13.81 dB 3:50 ?-Junkie for Your Love
DR10 -1.17 dB -12.98 dB 2:26 ?-Mojo Woman
DR10 -1.17 dB -12.23 dB 3:19 ?-Hard Attack
DR9 -1.18 dB -12.82 dB 2:51 ?-Hard Head (Makes a Sore Behind)
DR10 -1.17 dB -13.44 dB 4:41 ?-I Need Your Love
DR9 -1.17 dB -11.79 dB 3:53 ?-New Orleans
DR8 -1.40 dB -12.04 dB 3:34 ?-Blues 99
--------------------------------------------------------------------------------
Number of tracks: 10
Official DR value: DR10
Samplerate: 44100 Hz
Channels: 2
Bits per sample: 16
Bitrate: 940 kbps
Codec: FLAC
================================================================================
 
Лог проверки качества
-----------------------
DON'T MODIFY THIS FILE
-----------------------
PERFORMER: auCDtect Task Manager, ver. 1.5.1RC4 build 1.5.1.5
Copyright (c) 2008-2010 y-soft. All rights reserved
http://y-soft.org
ANALYZER: auCDtect: CD records authenticity detector, version 0.8.2
Copyright (c) 2004 Oleg Berngardt. All rights reserved.
Copyright (c) 2004 Alexander Djourik. All rights reserved.
FILE: 10. Blues 99.flac
Size: 25416253 Hash: 48328122E8BF93F030A930355538FF40 Accuracy: -m0
Conclusion: CDDA 100%
Signature: 1714BD2670DEE2B70517233595AFE9BCE1CF4335
FILE: 09. New Orleans.flac
Size: 25387682 Hash: C8F03BD306BC8EF86B6C0B8C4AD42C61 Accuracy: -m0
Conclusion: CDDA 100%
Signature: CAB9C6F4D5201A76C52A2FAC70E04128EC70C5C8
FILE: 08. I Need Your Love.flac
Size: 29357364 Hash: 789713BB8E3FB841882353357AF44E57 Accuracy: -m0
Conclusion: CDDA 100%
Signature: ADCF52A065B80CEA6DE4230E305651D0054899D6
FILE: 07. Hard Head (Makes a Sore Behind).flac
Size: 17425306 Hash: 45995C4F2EC5A428F8A8E62AE49399F8 Accuracy: -m0
Conclusion: CDDA 100%
Signature: 88073493C23287FB53AAB77186FCB72EFAF0028E
FILE: 06. Hard Attack.flac
Size: 20883057 Hash: ED66AD9A9798D5BBB05755ACB89EEC5E Accuracy: -m0
Conclusion: CDDA 100%
Signature: 7E10EF82D6342068C8D1716F7BCFCB39F51B88C5
FILE: 05. Mojo Woman.flac
Size: 16062977 Hash: D38BD13154BBC7212FDD10D2FF502794 Accuracy: -m0
Conclusion: CDDA 100%
Signature: 8B421B109EC6738DE1D6114EA66ED894B8599363
FILE: 04. Junkie for Your Love.flac
Size: 23680632 Hash: F4106D1CD9C9586ED104E00F9DF24CA9 Accuracy: -m0
Conclusion: CDDA 100%
Signature: B80CD7BF925BF9E8A82DE0F8101F279B9D941243
FILE: 03. Love Me Baby.flac
Size: 19438350 Hash: C06AB65F392F3BB9B5B9F923517AB355 Accuracy: -m0
Conclusion: CDDA 100%
Signature: 0644D0545E0A40DA666DE625BE45C43B74DC1883
FILE: 02. Why Can´t We Live Together.flac
Size: 32758213 Hash: C87AAF19E33A8B712B9AA546EAC3F865 Accuracy: -m0
Conclusion: CDDA 100%
Signature: 6BEF4DC3D971FCC476CE137C5BFE8E594BE89946
FILE: 01. Omega Man.flac
Size: 17814216 Hash: BB3FB8B4F80B63515413DD5C1B6157AC Accuracy: -m0
Conclusion: CDDA 100%
Signature: 1A9C2E964B6F81065EC1532BAB42A37B3BCF2E69
 
Об исполнителе (группе)
 
Состав
Arranged By – Eddie Silvers
Drums, Percussion, Backing Vocals – Alvino Bennett
Electric Bass, Backing Vocals – John Shubat
Harmonica – Freddy Fox
Organ [Electric Organ], Keyboards – Gregg Phelps
Percussion, Flute – Fred Walker
Percussion, Organ [Electric Organ], Keyboards, Flute, Backing Vocals – David Cook
Piano, Organ [Electric Organ], Keyboards – Tennyson Stephens
Piano, Organ, Backing Vocals – Steve Ostorich
Lead Vocals, Guitar, Claves [Clives] – Cash McCall
Arranged, Percussion, Backing Vocals – Chuck Colbert
Приватный:
Нет (DHT включён)
Размер:
217.91 Мб (228,496,360 байт) » файлов: 13
Участники:
0 раздают, 0 качают (0 участников всего)
Внешние участники:
2 раздают, 1 качают (3 участников всего) [ Обновить ]
No seeders - write a personal message to user M0p94ok. Нет сидеров - пишите личное сообщение пользователю M0p94ok.
15:09
119
Нет комментариев. Ваш будет первым!