Поиск

(Soul/R&B/Pop/Disco) [CD] Mary Wells - In And Out Of Love - 1981, FLAC (tracks+.cue), lossless

(Soul/R&B/Pop/Disco) [CD] Mary Wells - In And Out Of Love - 1981, FLAC (tracks+.cue), lossless
Треклист:
Mary Wells / In And Out Of Love (1981)
Жанр: Soul/R&B/Pop/Disco
Носитель: CD
Страна-производитель диска (релиза): USA
Год издания: 2010
Издатель (лейбл): Reel Music
Номер по каталогу: 66748-78027-2
Страна исполнителя (группы): USA
Аудиокодек: FLAC (*.flac)
Тип рипа: tracks+.cue
Битрейт аудио: lossless
Продолжительность: 00:54:42
Источник (релизер): из интернета
Наличие сканов в содержимом раздачи: да
Треклист:
01 These Arms
02 (Will You Still Love Me) Share My Love
03 You Make Me Feel So Good Inside
04 Spend The Nights With Me
05 Let's Mix It Up
06 I'm Changing My Ways
07 I'm Not The One (You 're In Love With)
08 Indian Giver
09 Gigolo
10 These Arms (12' Version)
11 Gigolo (12' Version)
 
Лог создания рипа
Exact Audio Copy V0.99 prebeta 5 from 4. May 2009
EAC extraction logfile from 14. November 2010, 16:23
Mary Wells / In And Out Of Love
Used drive : PHILIPS DVDR1628P1 Adapter: 4 ID: 0
Read mode : Secure
Utilize accurate stream : Yes
Defeat audio cache : Yes
Make use of C2 pointers : No
Read offset correction : 618
Overread into Lead-In and Lead-Out : No
Fill up missing offset samples with silence : Yes
Delete leading and trailing silent blocks : No
Null samples used in CRC calculations : Yes
Used interface : Installed external ASPI interface
Gap handling : Appended to previous track
Used output format : User Defined Encoder
Selected bitrate : 128 kBit/s
Quality : High
Add ID3 tag : No
Command line compressor : C:\Program Files\Exact Audio Copy\Flac\flac.exe
Additional command line options : -8 -V -T "ARTIST=%a" -T "TITLE=%t" -T "ALBUM=%g" -T "DATE=%y" -T "TRACKNUMBER=%n" -T "TOTALTRACKS=%x" -T "GENRE=%m" -T "ALBUM ARTIST=%v" -T "ALBUMARTIST=%v" -T "COMMENT=EAC V0.99 prebeta 5, Secure Mode, Test & Copy, Accurat
TOC of the extracted CD
Track | Start | Length | Start sector | End sector
---------------------------------------------------------
1 | 0:00.00 | 4:57.45 | 0 | 22319
2 | 4:57.45 | 6:01.30 | 22320 | 49424
3 | 10:59.00 | 4:11.36 | 49425 | 68285
4 | 15:10.36 | 4:20.05 | 68286 | 87790
5 | 19:30.41 | 4:10.48 | 87791 | 106588
6 | 23:41.14 | 3:53.72 | 106589 | 124135
7 | 27:35.11 | 4:13.03 | 124136 | 143113
8 | 31:48.14 | 4:34.29 | 143114 | 163692
9 | 36:22.43 | 5:28.28 | 163693 | 188320
10 | 41:50.71 | 5:27.72 | 188321 | 212917
11 | 47:18.68 | 7:23.11 | 212918 | 246153
Track 1
Filename C:\addis gugsa killed my hdd\01 - These Arms.wav
Pre-gap length 0:00:02.00
Peak level 96.6 %
Track quality 100.0 %
Test CRC 2F84C9DA
Copy CRC 2F84C9DA
Track not present in AccurateRip database
Copy OK
Track 2
Filename C:\addis gugsa killed my hdd\02 - (Will You Still Love Me) Share My Love.wav
Pre-gap length 0:00:01.57
Peak level 96.6 %
Track quality 100.0 %
Test CRC 8C6F3757
Copy CRC 8C6F3757
Track not present in AccurateRip database
Copy OK
Track 3
Filename C:\addis gugsa killed my hdd\03 - You Make Me Feel So Good Inside.wav
Pre-gap length 0:00:01.64
Peak level 97.7 %
Track quality 100.0 %
Test CRC 98E8D669
Copy CRC 98E8D669
Track not present in AccurateRip database
Copy OK
Track 4
Filename C:\addis gugsa killed my hdd\04 - Spend The Nights With Me.wav
Pre-gap length 0:00:01.58
Peak level 97.7 %
Track quality 100.0 %
Test CRC 4FEBB134
Copy CRC 4FEBB134
Track not present in AccurateRip database
Copy OK
Track 5
Filename C:\addis gugsa killed my hdd\05 - Let's Mix It Up.wav
Pre-gap length 0:00:01.53
Peak level 97.7 %
Track quality 100.0 %
Test CRC 81171FDF
Copy CRC 81171FDF
Track not present in AccurateRip database
Copy OK
Track 6
Filename C:\addis gugsa killed my hdd\06 - I'm Changing My Ways.wav
Pre-gap length 0:00:01.57
Peak level 97.7 %
Track quality 100.0 %
Test CRC 3EF5B3B2
Copy CRC 3EF5B3B2
Track not present in AccurateRip database
Copy OK
Track 7
Filename C:\addis gugsa killed my hdd\07 - I'm Not The One (You 're In Love With).wav
Pre-gap length 0:00:01.54
Peak level 97.7 %
Track quality 99.9 %
Test CRC A4716B5E
Copy CRC A4716B5E
Track not present in AccurateRip database
Copy OK
Track 8
Filename C:\addis gugsa killed my hdd\08 - Indian Giver.wav
Pre-gap length 0:00:01.58
Peak level 97.7 %
Track quality 100.0 %
Test CRC AE26EAC1
Copy CRC AE26EAC1
Track not present in AccurateRip database
Copy OK
Track 9
Filename C:\addis gugsa killed my hdd\09 - Gigolo.wav
Pre-gap length 0:00:01.56
Peak level 97.7 %
Track quality 99.9 %
Test CRC D4720E90
Copy CRC D4720E90
Track not present in AccurateRip database
Copy OK
Track 10
Filename C:\addis gugsa killed my hdd\10 - These Arms (12' Version).wav
Pre-gap length 0:00:01.60
Peak level 97.7 %
Track quality 100.0 %
Test CRC F4D63B3B
Copy CRC F4D63B3B
Track not present in AccurateRip database
Copy OK
Track 11
Filename C:\addis gugsa killed my hdd\11 - Gigolo (12' Version).wav
Pre-gap length 0:00:02.02
Peak level 97.7 %
Track quality 100.0 %
Test CRC 80D3C8D4
Copy CRC 80D3C8D4
Track not present in AccurateRip database
Copy OK
None of the tracks are present in the AccurateRip database
No errors occurred
End of status report
 
Содержание индексной карты (.CUE)
REM GENRE Soul
REM DATE 1981
REM DISCID 890CD20B
REM COMMENT "ExactAudioCopy v0.99pb5"
PERFORMER "Mary Wells"
TITLE "In And Out Of Love"
FILE "01 These Arms.wav" WAVE
TRACK 01 AUDIO
TITLE "These Arms"
PERFORMER "Mary Wells"
INDEX 01 00:00:00
TRACK 02 AUDIO
TITLE "(Will You Still Love Me) Share My Love"
PERFORMER "Mary Wells"
FLAGS DCP
INDEX 00 04:56:02
FILE "02 (Will You Still Love Me) Share My Love.wav" WAVE
INDEX 01 00:00:00
TRACK 03 AUDIO
TITLE "You Make Me Feel So Good Inside"
PERFORMER "Mary Wells"
FLAGS DCP
INDEX 00 05:59:57
FILE "03 You Make Me Feel So Good Inside.wav" WAVE
INDEX 01 00:00:00
TRACK 04 AUDIO
TITLE "Spend The Nights With Me"
PERFORMER "Mary Wells"
FLAGS DCP
INDEX 00 04:09:67
FILE "04 Spend The Nights With Me.wav" WAVE
INDEX 01 00:00:00
TRACK 05 AUDIO
TITLE "Let's Mix It Up"
PERFORMER "Mary Wells"
FLAGS DCP
INDEX 00 04:18:40
FILE "05 Let's Mix It Up.wav" WAVE
INDEX 01 00:00:00
TRACK 06 AUDIO
TITLE "I'm Changing My Ways"
PERFORMER "Mary Wells"
FLAGS DCP
INDEX 00 04:09:05
FILE "06 I'm Changing My Ways.wav" WAVE
INDEX 01 00:00:00
TRACK 07 AUDIO
TITLE "I'm Not The One (You 're In Love With)"
PERFORMER "Mary Wells"
FLAGS DCP
INDEX 00 03:52:31
FILE "07 I'm Not The One (You 're In Love With).wav" WAVE
INDEX 01 00:00:00
TRACK 08 AUDIO
TITLE "Indian Giver"
PERFORMER "Mary Wells"
FLAGS DCP
INDEX 00 04:11:34
FILE "08 Indian Giver.wav" WAVE
INDEX 01 00:00:00
TRACK 09 AUDIO
TITLE "Gigolo"
PERFORMER "Mary Wells"
FLAGS DCP
INDEX 00 04:32:62
FILE "09 Gigolo.wav" WAVE
INDEX 01 00:00:00
TRACK 10 AUDIO
TITLE "These Arms (12' Version)"
PERFORMER "Mary Wells"
FLAGS DCP
INDEX 00 05:26:58
FILE "10 These Arms (12' Version).wav" WAVE
INDEX 01 00:00:00
TRACK 11 AUDIO
TITLE "Gigolo (12' Version)"
PERFORMER "Mary Wells"
FLAGS DCP
INDEX 00 05:25:70
FILE "11 Gigolo (12' Version).wav" WAVE
INDEX 01 00:00:00
Приватный:
Нет (DHT включён)
Размер:
444.58 Мб (466,174,616 байт) » файлов: 27
Участники:
0 раздают, 0 качают (0 участников всего)
Внешние участники:
1 раздают, 0 качают (1 участников всего) [ Обновить ]
Есть вопросы - пишите личное сообщение пользователю M0p94ok.
09:20
48
Нет комментариев. Ваш будет первым!