Поиск

(Funk/Instrumental) [CD] Mustang - Hard Funk Trio - 2005, FLAC (image+.cue), lossless

(Funk/Instrumental) [CD] Mustang - Hard Funk Trio - 2005, FLAC (image+.cue), lossless
Треклист:
Mustang / Hard Funk Trio
Жанр: Funk/Instrumental
Носитель: CD
Страна-производитель диска (релиза): Мексика
Год издания: 2005
Издатель (лейбл): Luna Negra
Номер по каталогу: CDLN-29
Страна исполнителя (группы): Мексика
Аудиокодек: FLAC (*.flac)
Тип рипа: image+.cue
Битрейт аудио: lossless
Продолжительность: 38:28
Источник (релизер): novox
Наличие сканов в содержимом раздачи: да
Треклист:
1.No te metas eso a la boca
2.Te dije que no te metieras eso a la boca
3.Es divertido porque es cierto
4.Frutsi gratis
5.Dia feliz en colorilandia
6.James Brown
7.Mi perro se comio mi tarea
8.Tragaste Ligas?
9.Tuinti tuinti turiru
10.Mi pequeno pony
11.Vamonos que aqui espantan
12.Cancion bonita
 
Лог создания рипа
Exact Audio Copy V1.0 beta 2 from 29. April 2011
Отчёт EAC об извлечении, выполненном 8. февраля 2013, 21:16
Mustang / Hard Funk Trio
Дисковод: ATAPI iHAP122 W Adapter: 3 ID: 1
Режим чтения : Достоверность
Использование точного потока : Да
Отключение кэша аудио : Да
Использование указателей C2 : Нет
Коррекция смещения при чтении : 6
Способность читать области Lead-in и Lead-out : Нет
Заполнение пропущенных сэмплов тишиной : Да
Удаление блоков с тишиной в начале и конце : Нет
При вычислениях CRC использовались нулевые сэмплы : Нет
Интерфейс : Встроенный Win32-интерфейс для Win NT/2000
Выходной формат : Внутренние WAV-операции
Формат сэмплов : 44.100 Гц; 16 бит; стерео
TOC извлечённого CD
Трек | Старт | Длительность | Начальный сектор | Конечный сектор
---------------------------------------------------------------------
1 | 0:00.00 | 3:34.31 | 0 | 16080
2 | 3:34.31 | 2:26.03 | 16081 | 27033
3 | 6:00.34 | 2:45.64 | 27034 | 39472
4 | 8:46.23 | 3:37.20 | 39473 | 55767
5 | 12:23.43 | 2:37.61 | 55768 | 67603
6 | 15:01.29 | 2:02.47 | 67604 | 76800
7 | 17:04.01 | 3:35.17 | 76801 | 92942
8 | 20:39.18 | 2:50.53 | 92943 | 105745
9 | 23:29.71 | 2:59.33 | 105746 | 119203
10 | 26:29.29 | 4:03.52 | 119204 | 137480
11 | 30:33.06 | 4:15.60 | 137481 | 156665
12 | 34:48.66 | 3:38.40 | 156666 | 173055
Характеристики диапазона извлечения и сообщения об ошибках
Выбранный диапазон
Имя файла D:\obraz\Mustang - Hard funk trio\Mustang - Hard Funk Trio.wav
Пиковый уровень 98.4 %
Скорость извлечения 2.8 X
Качество диапазона 99.9 %
CRC теста D9377BA1
CRC копии D9377BA1
Копирование... OK
Ошибок не произошло
AccurateRip: сводка
Трек 1 отсутствует в базе данных
Трек 2 отсутствует в базе данных
Трек 3 отсутствует в базе данных
Трек 4 отсутствует в базе данных
Трек 5 отсутствует в базе данных
Трек 6 отсутствует в базе данных
Трек 7 отсутствует в базе данных
Трек 8 отсутствует в базе данных
Трек 9 отсутствует в базе данных
Трек 10 отсутствует в базе данных
Трек 11 отсутствует в базе данных
Трек 12 отсутствует в базе данных
Ни одного трека нет в базе AccurateRip
Конец отчёта
==== Контрольная сумма отчёта 7CC6181A49354ACDD60743D26B9BC08B8B160A1466952AF5B9B4056070346860 ====
 
Содержание индексной карты (.CUE)
REM GENRE Funk
REM DATE 2005
REM DISCID 8509030C
REM COMMENT "ExactAudioCopy v1.0b2"
PERFORMER "Mustang"
TITLE "Hard Funk Trio"
FILE "Mustang - Hard Funk Trio.wav" WAVE
TRACK 01 AUDIO
TITLE "No te metas eso a la boca"
PERFORMER "Mustang"
INDEX 01 00:00:00
TRACK 02 AUDIO
TITLE "Te dije que no te metieras eso a la boca "
PERFORMER "Mustang"
INDEX 01 03:34:31
TRACK 03 AUDIO
TITLE "Es divertiodo porque es cierto"
PERFORMER "Mustang"
INDEX 01 06:00:34
TRACK 04 AUDIO
TITLE "Frutsi gratis"
PERFORMER "Mustang"
INDEX 01 08:46:23
TRACK 05 AUDIO
TITLE "Dia feliz en colorilandia"
PERFORMER "Mustang"
INDEX 01 12:23:43
TRACK 06 AUDIO
TITLE "James Brown"
PERFORMER "Mustang"
INDEX 01 15:01:29
TRACK 07 AUDIO
TITLE "Mi perro se comio mi tarea"
PERFORMER "Mustang"
INDEX 01 17:04:01
TRACK 08 AUDIO
TITLE "Tragaste ligas?"
PERFORMER "Mustang"
INDEX 01 20:39:18
TRACK 09 AUDIO
TITLE "Tuinti tuinti turiru"
PERFORMER "Mustang"
INDEX 01 23:29:71
TRACK 10 AUDIO
TITLE "Mi pequeno pony"
PERFORMER "Mustang"
INDEX 01 26:29:29
TRACK 11 AUDIO
TITLE "Vamonos que aqui espantan"
PERFORMER "Mustang"
INDEX 01 30:33:06
TRACK 12 AUDIO
TITLE "Cancion bonita"
PERFORMER "Mustang"
INDEX 01 34:48:66
Доп. информация: Неизвестная мексиканская команда с единственным(?) альбомом c жёстким, напористым, упругим, инструментальным хард-фанком, - эту стилистику они даже выделили в само название альбома.
Хорошо, что короткий диск, а то так и тянет перекурить после такого напора....
 
Состав
Felipe Munoz - guitarra, teclado y percusiones
Guillermo Munoz - bajo y risa incidental en 4
Abraham - Benitez - bateria
invitados:
Guillermo Gonzales - guitarra en 8 y 10
Guillermo Portillo - saxofones y flauta
Javier Araujo - congas
Miguel A.Munoz - teclado en 12
Приватный:
Нет (DHT включён)
Размер:
268.76 Мб (281,817,381 байт) » файлов: 10
Участники:
0 раздают, 0 качают (0 участников всего)
Внешние участники:
2 раздают, 1 качают (3 участников всего) [ Обновить ]
No seeders - write a personal message to user M0p94ok. Нет сидеров - пишите личное сообщение пользователю M0p94ok.
09:21
68
Нет комментариев. Ваш будет первым!