Поиск

(Pop Soul,Funk,R&B,Doo-Wop) [CD] The Pasadenas - To Whom It May Concern - 1988, FLAC (image+.cue), lossless

(Pop Soul,Funk,R&B,Doo-Wop) [CD] The Pasadenas - To Whom It May Concern - 1988, FLAC (image+.cue), lossless
Треклист:
The Pasadenas / To Whom It May Concern
Жанр: Pop Soul,Funk,R&B,Doo-Wop
Носитель: CD
Страна-производитель диска (релиза): Austria
Год издания: 1988
Издатель (лейбл): Columbia/Sony
Номер по каталогу: 462877 2
Страна исполнителя (группы): UK/US
Аудиокодек: FLAC (*.flac)
Тип рипа: image+.cue
Битрейт аудио: lossless
Продолжительность: 00:48:19
Источник (релизер): собственный рип
Наличие сканов в содержимом раздачи: нет
Треклист:
01.Funny Feeling
02.Living In The Footsteps Of Another Man
03.Enchanted Lady
04.New Love
05.Riding On A Train
06.Give A Little Peace
07.Tribute (Right On)
08.I Really Miss You
09.Justice For The World
10.Something Else
 
Лог создания рипа
Exact Audio Copy V1.1 from 23. June 2015
EAC extraction logfile from 4. January 2016, 1:30
The Pasadenas / To Whom It May Concern
Used drive : TSSTcorpCDDVDW TS-L633C Adapter: 1 ID: 0
Read mode : Secure
Utilize accurate stream : Yes
Defeat audio cache : Yes
Make use of C2 pointers : No
Read offset correction : 6
Overread into Lead-In and Lead-Out : No
Fill up missing offset samples with silence : Yes
Delete leading and trailing silent blocks : No
Null samples used in CRC calculations : Yes
Used interface : Native Win32 interface for Win NT & 2000
Used output format : User Defined Encoder
Selected bitrate : 768 kBit/s
Quality : High
Add ID3 tag : No
Command line compressor : C:\Program Files (x86)\Exact Audio Copy\Flac\flac.exe
Additional command line options : -V -8 -T "Date=%year%" -T "Genre=%genre%" %source%
TOC of the extracted CD
Track | Start | Length | Start sector | End sector
---------------------------------------------------------
1 | 0:00.00 | 4:35.65 | 0 | 20689
2 | 4:35.65 | 3:45.22 | 20690 | 37586
3 | 8:21.12 | 4:58.50 | 37587 | 59986
4 | 13:19.62 | 3:54.73 | 59987 | 77609
5 | 17:14.60 | 5:20.55 | 77610 | 101664
6 | 22:35.40 | 4:20.47 | 101665 | 121211
7 | 26:56.12 | 5:11.08 | 121212 | 144544
8 | 32:07.20 | 4:39.22 | 144545 | 165491
9 | 36:46.42 | 5:46.13 | 165492 | 191454
10 | 42:32.55 | 5:46.55 | 191455 | 217459
Range status and errors
Selected range
Filename C:\Users\Music\12.RIPS\The Pasadenas - To Whom It May Concern.wav
Peak level 100.0 %
Extraction speed 4.1 X
Range quality 100.0 %
Test CRC A8BB3E1D
Copy CRC A8BB3E1D
Copy OK
No errors occurred
AccurateRip summary
Track 1 accurately ripped (confidence 76) [582C750A] (AR v2)
Track 2 accurately ripped (confidence 76) [C4F99051] (AR v2)
Track 3 accurately ripped (confidence 76) [FA225E37] (AR v2)
Track 4 accurately ripped (confidence 76) [CC93C3A8] (AR v2)
Track 5 accurately ripped (confidence 78) [600DE627] (AR v2)
Track 6 accurately ripped (confidence 76) [01978978] (AR v2)
Track 7 accurately ripped (confidence 78) [8C491595] (AR v2)
Track 8 accurately ripped (confidence 76) [6837298B] (AR v2)
Track 9 accurately ripped (confidence 76) [0FFBB357] (AR v2)
Track 10 accurately ripped (confidence 76) [A5DF5DE8] (AR v2)
All tracks accurately ripped
End of status report
---- CUETools DB Plugin V2.1.6
[CTDB TOCID: qPi2NEyB43RCBTRJrBZ8e4KvGRQ-] found
Submit result: qPi2NEyB43RCBTRJrBZ8e4KvGRQ- has been confirmed
Track | CTDB Status
1 | (72/72) Accurately ripped
2 | (72/72) Accurately ripped
3 | (72/72) Accurately ripped
4 | (71/72) Accurately ripped
5 | (71/72) Accurately ripped
6 | (70/72) Accurately ripped
7 | (70/72) Accurately ripped
8 | (70/72) Accurately ripped
9 | (70/72) Accurately ripped
10 | (69/72) Accurately ripped
==== Log checksum F18E7E655C5204D806371E181594A5A1B69F27F0E32AD37F3319E9E8307DB8E7 ====
 
Об исполнителе (группе)
A vocal group firmly focused on the music and artists from earlier decades, their music was heavily influenced by 1950s doo-wop, 1960s Motown and early 1970s funk and R&B. The band was mainly known in the United Kingdom.
The group scored a UK number five hit, and topped the charts in the Netherlands in 1988 with its initial release, "Tribute (Right On)", which paid homage to soul luminaries such as Diana Ross & the Supremes and Aretha Franklin. In October 1988, they released a companion album, To Whom It May Concern which sold more than one million copies. In addition to "Tribute (Right On)", the disc included the minor hit "Riding on a Train" (a number four hit in the Netherlands), and a version of The Chi-Lites' "Living In the Footsteps of Another Man". They had several follow-up hits as well, including "Love Thing" (UK #22, Netherlands #13) in 1990.
The previous year the Pasadenas were part of Band Aid II.
The group followed with Elevate in 1991 and Yours Sincerely in 1992, but never again charted in the U.S., although they achieved another UK hit with a Billy Griffin production of remake of New York City’s "I'm Doin' Fine Now", which sold over 200,000 copies. It was slightly re-titled ("I'm Doing Fine Now"), and became their biggest hit, reaching #4 in the UK. The Pasadenas continued to perform around the UK into the 21st century.
In 2002 Cherry Red Records the album To Whom It May Concern was reissued on CD.In April 2005 the Pasadenas took part in week three of the TV reality show, Hit Me, Baby, One More Time.
Band member Andrew Banfield's sister, Susan, was one half of the Cookie Crew.
Приватный:
Нет (DHT включён)
Размер:
320.95 Мб (336,535,537 байт) » файлов: 4
Участники:
0 раздают, 0 качают (0 участников всего)
Внешние участники:
3 раздают, 1 качают (4 участников всего) [ Обновить ]
Есть вопросы - пишите личное сообщение пользователю M0p94ok.
09:21
92
Нет комментариев. Ваш будет первым!