Поиск

(Soul,Funk,Doo-Wop,New Jack Swing,House) [CD] The Pasadenas - Yours Sincerely - 1992, FLAC (image+.cue), lossless

(Soul,Funk,Doo-Wop,New Jack Swing,House) [CD] The Pasadenas - Yours Sincerely - 1992, FLAC (image+.cue), lossless
Треклист:
The Pasadenas / Yours Sincerely
Жанр: Soul,Funk,Doo-Wop,New Jack Swing,House
Носитель: CD
Страна-производитель диска (релиза): Austria
Год издания: 1992
Издатель (лейбл): Columbia/Sony
Номер по каталогу: 471264 2
Страна исполнителя (группы): UK/US
Аудиокодек: FLAC (*.flac)
Тип рипа: image+.cue
Битрейт аудио: lossless
Продолжительность: 00:44:43
Источник (релизер): собственный рип
Наличие сканов в содержимом раздачи: нет
Треклист:
1 I'm Doing Fine Now
2 Moving In The Right Direction
3 Make It With You
4 Let's Get It On
5 Lucy In The Sky With Diamonds
6 Everybody's Singing Love Songs
7 Waiting In Vain
8 I Believe In Miracles
9 Come On Down (Get Your Head Out Of The Clouds)
10 Weak At The Knees
 
Лог создания рипа
Exact Audio Copy V1.1 from 23. June 2015
EAC extraction logfile from 4. January 2016, 3:42
The Pasadenas / Yours Sincerely
Used drive : TSSTcorpCDDVDW TS-L633C Adapter: 1 ID: 0
Read mode : Secure
Utilize accurate stream : Yes
Defeat audio cache : Yes
Make use of C2 pointers : No
Read offset correction : 6
Overread into Lead-In and Lead-Out : No
Fill up missing offset samples with silence : Yes
Delete leading and trailing silent blocks : No
Null samples used in CRC calculations : Yes
Used interface : Native Win32 interface for Win NT & 2000
Used output format : User Defined Encoder
Selected bitrate : 768 kBit/s
Quality : High
Add ID3 tag : No
Command line compressor : C:\Program Files (x86)\Exact Audio Copy\Flac\flac.exe
Additional command line options : -V -8 -T "Date=%year%" -T "Genre=%genre%" %source%
TOC of the extracted CD
Track | Start | Length | Start sector | End sector
---------------------------------------------------------
1 | 0:00.00 | 3:34.67 | 0 | 16116
2 | 3:34.67 | 4:05.20 | 16117 | 34511
3 | 7:40.12 | 4:44.10 | 34512 | 55821
4 | 12:24.22 | 5:40.20 | 55822 | 81341
5 | 18:04.42 | 5:43.03 | 81342 | 107069
6 | 23:47.45 | 4:17.32 | 107070 | 126376
7 | 28:05.02 | 4:50.60 | 126377 | 148186
8 | 32:55.62 | 3:40.20 | 148187 | 164706
9 | 36:36.07 | 3:25.15 | 164707 | 180096
10 | 40:01.22 | 4:42.03 | 180097 | 201249
Range status and errors
Selected range
Filename C:\Users\Music\12.RIPS\The Pasadenas - Yours Sincerely.wav
Peak level 100.0 %
Extraction speed 1.8 X
Range quality 100.0 %
Test CRC 54E20599
Copy CRC 54E20599
Copy OK
No errors occurred
AccurateRip summary
Track 1 accurately ripped (confidence 13) [8AE40DC0] (AR v2)
Track 2 accurately ripped (confidence 13) [DB5A5F24] (AR v2)
Track 3 accurately ripped (confidence 13) [0B9898E3] (AR v2)
Track 4 accurately ripped (confidence 13) [BCE3BD0E] (AR v2)
Track 5 accurately ripped (confidence 13) [1C0C0E78] (AR v2)
Track 6 accurately ripped (confidence 13) [20630686] (AR v2)
Track 7 accurately ripped (confidence 13) [7114889E] (AR v2)
Track 8 accurately ripped (confidence 13) [E287EC6D] (AR v2)
Track 9 accurately ripped (confidence 13) [8B022F3A] (AR v2)
Track 10 accurately ripped (confidence 13) [B860D032] (AR v2)
All tracks accurately ripped
End of status report
---- CUETools DB Plugin V2.1.6
[CTDB TOCID: CMiV7IqQIZv1NNmiPAGse8z3xxA-] found
Submit result: CMiV7IqQIZv1NNmiPAGse8z3xxA- has been confirmed
Track | CTDB Status
1 | (20/20) Accurately ripped
2 | (20/20) Accurately ripped
3 | (20/20) Accurately ripped
4 | (20/20) Accurately ripped
5 | (20/20) Accurately ripped
6 | (20/20) Accurately ripped
7 | (19/20) Accurately ripped
8 | (19/20) Accurately ripped
9 | (20/20) Accurately ripped
10 | (20/20) Accurately ripped
==== Log checksum 56023FD964DE8684ACA4263C74DD5CF6B56CBA7A220D9620430EC7A7CA5D06BA ====
 
Об исполнителе (группе)
A vocal group firmly focused on the music and artists from earlier decades, their music was heavily influenced by 1950s doo-wop, 1960s Motown and early 1970s funk and R&B. The band was mainly known in the United Kingdom.
The group scored a UK number five hit, and topped the charts in the Netherlands in 1988 with its initial release, "Tribute (Right On)", which paid homage to soul luminaries such as Diana Ross & the Supremes and Aretha Franklin. In October 1988, they released a companion album, To Whom It May Concern which sold more than one million copies. In addition to "Tribute (Right On)", the disc included the minor hit "Riding on a Train" (a number four hit in the Netherlands), and a version of The Chi-Lites' "Living In the Footsteps of Another Man". They had several follow-up hits as well, including "Love Thing" (UK #22, Netherlands #13) in 1990.
The previous year the Pasadenas were part of Band Aid II.
The group followed with Elevate in 1991 and Yours Sincerely in 1992, but never again charted in the U.S., although they achieved another UK hit with a Billy Griffin production of remake of New York City’s "I'm Doin' Fine Now", which sold over 200,000 copies. It was slightly re-titled ("I'm Doing Fine Now"), and became their biggest hit, reaching #4 in the UK. The Pasadenas continued to perform around the UK into the 21st century.
In 2002 Cherry Red Records the album To Whom It May Concern was reissued on CD.In April 2005 the Pasadenas took part in week three of the TV reality show, Hit Me, Baby, One More Time.
Band member Andrew Banfield's sister, Susan, was one half of the Cookie Crew.
Приватный:
Нет (DHT включён)
Размер:
291.20 Мб (305,344,938 байт) » файлов: 8
Участники:
0 раздают, 0 качают (0 участников всего)
Внешние участники:
1 раздают, 0 качают (1 участников всего) [ Обновить ]
Есть вопросы - пишите личное сообщение пользователю M0p94ok.
09:22
109
Нет комментариев. Ваш будет первым!