Поиск

(Funk-Soul,Doo-Woop,New Jack Swing,House) [CD] The Pasadenas - Elevate - 1991, FLAC (image+.cue), lossless

(Funk-Soul,Doo-Woop,New Jack Swing,House) [CD] The Pasadenas - Elevate - 1991, FLAC (image+.cue), lossless
Треклист:
The Pasadenas / Elevate
Жанр: Funk-Soul,Doo-Woop,New Jack Swing,House
Носитель: CD
Страна-производитель диска (релиза): Austria
Год издания: 1991
Издатель (лейбл): Columbia/Sony
Номер по каталогу: 467023.2
Страна исполнителя (группы): UK/US
Аудиокодек: FLAC (*.flac)
Тип рипа: image+.cue
Битрейт аудио: lossless
Продолжительность: 01:06:04
Источник (релизер): собственный рип
Наличие сканов в содержимом раздачи: нет
Треклист:
1 Reeling
2 South Africa (feat. Cookie Crew)
3 Love Thing
4 I'd Die For You
5 Bridge Over Troubled Water
6 Another Lover
7 I'd Die For You (Reprise)
8 Strong Enough
9 Cry My Tears (Posthumously Yours)
10 I Want To Be
11 More Time For Love
12 The Base Is Slipping
13 Love Changes
14 I Want To Be (UK Mix)
 
Лог создания рипа
Exact Audio Copy V1.1 from 23. June 2015
EAC extraction logfile from 4. January 2016, 2:38
The Pasadenas / Elevate
Used drive : TSSTcorpCDDVDW TS-L633C Adapter: 1 ID: 0
Read mode : Secure
Utilize accurate stream : Yes
Defeat audio cache : Yes
Make use of C2 pointers : No
Read offset correction : 6
Overread into Lead-In and Lead-Out : No
Fill up missing offset samples with silence : Yes
Delete leading and trailing silent blocks : No
Null samples used in CRC calculations : Yes
Used interface : Native Win32 interface for Win NT & 2000
Used output format : User Defined Encoder
Selected bitrate : 768 kBit/s
Quality : High
Add ID3 tag : No
Command line compressor : C:\Program Files (x86)\Exact Audio Copy\Flac\flac.exe
Additional command line options : -V -8 -T "Date=%year%" -T "Genre=%genre%" %source%
TOC of the extracted CD
Track | Start | Length | Start sector | End sector
---------------------------------------------------------
1 | 0:00.00 | 4:01.25 | 0 | 18099
2 | 4:01.25 | 6:08.22 | 18100 | 45721
3 | 10:09.47 | 3:55.60 | 45722 | 63406
4 | 14:05.32 | 5:16.08 | 63407 | 87114
5 | 19:21.40 | 5:05.12 | 87115 | 110001
6 | 24:26.52 | 3:59.43 | 110002 | 127969
7 | 28:26.20 | 0:49.52 | 127970 | 131696
8 | 29:15.72 | 3:44.25 | 131697 | 148521
9 | 33:00.22 | 7:20.58 | 148522 | 181579
10 | 40:21.05 | 4:34.65 | 181580 | 202194
11 | 44:55.70 | 4:09.02 | 202195 | 220871
12 | 49:04.72 | 6:19.33 | 220872 | 249329
13 | 55:24.30 | 4:31.45 | 249330 | 269699
14 | 59:56.00 | 6:08.45 | 269700 | 297344
Range status and errors
Selected range
Filename C:\Users\Music\12.RIPS\The Pasadenas - Elevate.wav
Peak level 100.0 %
Extraction speed 2.1 X
Range quality 100.0 %
Test CRC FED08957
Copy CRC FED08957
Copy OK
No errors occurred
AccurateRip summary
Track 1 accurately ripped (confidence 10) [62A6F57D] (AR v2)
Track 2 accurately ripped (confidence 10) [5F0069C2] (AR v2)
Track 3 accurately ripped (confidence 10) [B8755D31] (AR v2)
Track 4 accurately ripped (confidence 10) [C4982EF7] (AR v2)
Track 5 accurately ripped (confidence 10) [3FB14ED3] (AR v2)
Track 6 accurately ripped (confidence 10) [CD84132B] (AR v2)
Track 7 accurately ripped (confidence 10) [574CC846] (AR v2)
Track 8 accurately ripped (confidence 10) [4506AFC4] (AR v2)
Track 9 accurately ripped (confidence 10) [B0822745] (AR v2)
Track 10 accurately ripped (confidence 10) [3B1E8A11] (AR v2)
Track 11 accurately ripped (confidence 9) [1FF99C15] (AR v2)
Track 12 accurately ripped (confidence 9) [826B8965] (AR v2)
Track 13 accurately ripped (confidence 10) [BDFC943A] (AR v2)
Track 14 accurately ripped (confidence 10) [AD9B57B1] (AR v2)
All tracks accurately ripped
End of status report
---- CUETools DB Plugin V2.1.6
[CTDB TOCID: TeVzwEcWjH6Iib.wMitt3aNc0kE-] found
Submit result: TeVzwEcWjH6Iib.wMitt3aNc0kE- has been confirmed
Track | CTDB Status
1 | (15/15) Accurately ripped
2 | (15/15) Accurately ripped
3 | (15/15) Accurately ripped
4 | (15/15) Accurately ripped
5 | (15/15) Accurately ripped
6 | (15/15) Accurately ripped
7 | (15/15) Accurately ripped
8 | (15/15) Accurately ripped
9 | (15/15) Accurately ripped
10 | (15/15) Accurately ripped
11 | (15/15) Accurately ripped
12 | (15/15) Accurately ripped
13 | (15/15) Accurately ripped
14 | (15/15) Accurately ripped
==== Log checksum 4B3F5FD05ED99D3E637F1D2DDEA59793FDD4E9C2B7063588BC4977DF00C05BF0 ====
 
Об исполнителе (группе)
A vocal group firmly focused on the music and artists from earlier decades, their music was heavily influenced by 1950s doo-wop, 1960s Motown and early 1970s funk and R&B. The band was mainly known in the United Kingdom.
The group scored a UK number five hit, and topped the charts in the Netherlands in 1988 with its initial release, "Tribute (Right On)", which paid homage to soul luminaries such as Diana Ross & the Supremes and Aretha Franklin. In October 1988, they released a companion album, To Whom It May Concern which sold more than one million copies. In addition to "Tribute (Right On)", the disc included the minor hit "Riding on a Train" (a number four hit in the Netherlands), and a version of The Chi-Lites' "Living In the Footsteps of Another Man". They had several follow-up hits as well, including "Love Thing" (UK #22, Netherlands #13) in 1990.
The previous year the Pasadenas were part of Band Aid II.
The group followed with Elevate in 1991 and Yours Sincerely in 1992, but never again charted in the U.S., although they achieved another UK hit with a Billy Griffin production of remake of New York City’s "I'm Doin' Fine Now", which sold over 200,000 copies. It was slightly re-titled ("I'm Doing Fine Now"), and became their biggest hit, reaching #4 in the UK. The Pasadenas continued to perform around the UK into the 21st century.
In 2002 Cherry Red Records the album To Whom It May Concern was reissued on CD.In April 2005 the Pasadenas took part in week three of the TV reality show, Hit Me, Baby, One More Time.
Band member Andrew Banfield's sister, Susan, was one half of the Cookie Crew.
 
Об альбоме (сборнике)
Tracks 1 &3 remixed and produced by Bruce Forrest;Tracks 6 & 11produced by Marshall Jefferson.
Приватный:
Нет (DHT включён)
Размер:
417.29 Мб (437,556,600 байт) » файлов: 4
Участники:
0 раздают, 0 качают (0 участников всего)
Внешние участники:
2 раздают, 1 качают (3 участников всего) [ Обновить ]
Есть вопросы - пишите личное сообщение пользователю M0p94ok.
09:23
83
Нет комментариев. Ваш будет первым!